<?xml version="1.0" standalone="no"?>
<!DOCTYPE svg PUBLIC "-//W3C//DTD SVG 1.1//EN" "http://www.w3.org/Graphics/SVG/1.1/DTD/svg11.dtd" >
<svg xmlns="http://www.w3.org/2000/svg" xmlns:xlink="http://www.w3.org/1999/xlink" version="1.1">
<metadata>
Created by FontForge 20201107 at Thu Sep  5 21:47:35 2024
 By 
Copyright (c)2014 Commercial Type.
</metadata>
<defs>
<font id="Druk-WideBold" horiz-adv-x="1445" >
  <font-face 
    font-family="Druk"
    font-weight="700"
    font-stretch="expanded"
    units-per-em="2048"
    panose-1="0 0 0 0 0 0 0 0 0 0"
    ascent="1638"
    descent="-410"
    x-height="1102"
    cap-height="1524"
    bbox="-233 -612 5421 2460"
    underline-thickness="268"
    underline-position="-41"
    unicode-range="U+000D-FB02"
  />
<missing-glyph horiz-adv-x="622" 
 />
    <glyph glyph-name="f_f" unicode="ff" horiz-adv-x="1990" 
d="M797 0h-553v764h-217v338h217v108q0 314 403 314h395v-295h-170q-45 0 -60 -18t-15 -62v-47h352v108q0 314 403 314h398v-295h-172q-45 0 -60.5 -18t-15.5 -62v-47h248v-338h-248v-764h-553v764h-352v-764z" />
    <glyph glyph-name="f_i" unicode="fi" horiz-adv-x="1785" 
d="M1704 1524v-330h-557v330h557zM1704 1102v-1102h-557v1102h557zM1038 1524v-295h-166q-45 0 -60 -18t-15 -62v-47h241v-338h-241v-764h-553v764h-217v338h217v108q0 314 403 314h391z" />
    <glyph glyph-name="f_l" unicode="fl" horiz-adv-x="1785" 
d="M1038 1524v-295h-166q-45 0 -60 -18t-15 -62v-47h241v-338h-241v-764h-553v764h-217v338h217v108q0 314 403 314h391zM1704 1524v-1524h-557v1524h557z" />
    <glyph glyph-name="emdash.alt" unicode="&#x2014;&#x2014;" horiz-adv-x="5488" 
d="M5421 756v-291h-5353v291h5353z" />
    <glyph glyph-name=".notdef" horiz-adv-x="622" 
 />
    <glyph glyph-name=".null" horiz-adv-x="0" 
 />
    <glyph glyph-name="nonmarkingreturn" horiz-adv-x="682" 
 />
    <glyph glyph-name="NULL" horiz-adv-x="0" 
 />
    <glyph glyph-name="NULL" horiz-adv-x="0" 
 />
    <glyph glyph-name="CR" unicode="&#xd;" horiz-adv-x="622" 
 />
    <glyph glyph-name="space" unicode=" " horiz-adv-x="622" 
 />
    <glyph glyph-name="exclam" unicode="!" horiz-adv-x="780" 
d="M33 1524h715l-189 -1032h-340zM680 399v-399h-580v399h580z" />
    <glyph glyph-name="quotedbl" unicode="&#x22;" horiz-adv-x="1110" 
d="M1044 1524v-537h-444v537h444zM508 1524v-537h-442v537h442z" />
    <glyph glyph-name="numbersign" unicode="#" horiz-adv-x="1710" 
d="M958 670l72 254h-282l-72 -254h282zM772 0l117 416h-283l-117 -416h-339l116 416h-260l70 254h260l70 254h-261l72 254h260l96 346h342l-98 -346h285l96 346h342l-98 -346h262l-72 -254h-260l-72 -254h263l-72 -254h-262l-117 -416h-340z" />
    <glyph glyph-name="dollar" unicode="$" horiz-adv-x="2062" 
d="M635 1104v-4q0 -31 18 -53t81 -41t175 -27v244q-74 -3 -126 -11t-80.5 -18t-44 -26t-19.5 -29.5t-4 -34.5zM1419 461v8q0 30 -11 50t-42 39t-95 30.5t-163 17.5v-297q98 4 164 18.5t96 38t40.5 45.5t10.5 50zM1108 -154h-199v127q-882 11 -882 539v23h598q0 -27 6 -51.5
t24 -53t48 -51t83 -40.5t123 -26v299l-143 6q-719 20 -719 453v19q0 78 22.5 142t81.5 123t154 99t248.5 64t355.5 24v121h199v-121q205 -3 360.5 -30.5t251 -71t155 -105.5t81.5 -126t22 -140v-18h-592q-2 22 -7 39t-22.5 40t-45.5 39t-80 30.5t-123 21.5v-250l149 -6
q417 -12 596 -116.5t179 -330.5v-29q0 -60 -10 -111.5t-37 -105t-71 -96.5t-115.5 -82t-166 -65t-228 -41t-296.5 -15v-127z" />
    <glyph glyph-name="percent" unicode="%" horiz-adv-x="2971" 
d="M700 657h-45q-108 0 -198 16t-152 41.5t-109 62t-75 74.5t-45 82t-23 80.5t-6 73.5v33q0 37 6 73t23.5 79t45 80t75 72.5t109.5 60.5t151.5 40t197.5 15h45q108 0 197.5 -15t151 -40t109 -60.5t75 -72.5t45 -80t23.5 -79t6 -73v-33q0 -37 -6 -73.5t-23.5 -80.5t-45 -82
t-75 -74.5t-109 -62t-151 -41.5t-197.5 -16zM2099 1524h441l-1672 -1524h-440zM676 928q121 0 178 49t57 119v12q0 74 -54.5 120t-180.5 46q-123 0 -178.5 -46.5t-55.5 -119.5v-10q0 -71 57 -120.5t177 -49.5zM2318 -16h-49q-108 0 -197 16t-150.5 41.5t-109 62t-75 74.5
t-45 82t-23.5 80.5t-6 73.5v32q0 38 6 74t23.5 79.5t45 80t75 72.5t109.5 61t151.5 40t197.5 15h45q108 0 197.5 -15t151.5 -40t109.5 -60.5t75.5 -73t45.5 -80.5t23.5 -79t6 -74v-32q0 -37 -6 -73.5t-23.5 -80.5t-45 -82t-75 -74.5t-109 -62t-151 -41.5t-197.5 -16z
M2294 254q121 0 178 49t57 119v14q0 73 -56.5 118.5t-178.5 45.5q-126 0 -181 -45.5t-55 -118.5v-10q0 -74 57 -123t179 -49z" />
    <glyph glyph-name="ampersand" unicode="&#x26;" horiz-adv-x="2342" 
d="M844 1182q0 -51 44.5 -95t164.5 -126q122 39 187 84t65 108q0 66 -54 100.5t-192 34.5q-120 0 -167.5 -28t-47.5 -78zM1024 285q158 0 272 24l-575 379q-115 -60 -115 -166v-6q0 -45 22.5 -84.5t69 -73t130.5 -53.5t196 -20zM2357 348l-143 -371q-186 0 -318 27.5
t-245 85.5q-265 -119 -668 -119q-218 0 -387.5 25t-275.5 66.5t-174 101t-94.5 121.5t-26.5 135v20q0 304 497 381q-205 154 -205 346v17q0 372 693 372h114q162 0 284 -23t191.5 -57.5t112.5 -83.5t56.5 -92.5t13.5 -93.5v-10q0 -64 -26 -118t-84.5 -102.5t-162 -87.5
t-249.5 -65l399 -268q94 154 94 369h502q-2 -143 -61 -283.5t-169 -263.5q116 -29 332 -29z" />
    <glyph glyph-name="quotesingle" unicode="'" horiz-adv-x="575" 
d="M510 1524v-537h-444v537h444z" />
    <glyph glyph-name="parenleft" unicode="(" horiz-adv-x="739" 
d="M55 698q0 154 34 297.5t95 262.5t132.5 215.5t158.5 181.5h279q-269 -428 -269 -957q0 -273 72.5 -518.5t196.5 -447.5h-279q-420 412 -420 966z" />
    <glyph glyph-name="parenright" unicode=")" horiz-adv-x="739" 
d="M264 -268h-276q266 450 266 966q0 529 -266 957h276q87 -85 158.5 -181.5t132.5 -215.5t95 -262.5t34 -297.5q0 -557 -420 -966z" />
    <glyph glyph-name="asterisk" unicode="*" horiz-adv-x="962" 
d="M590 1288l201 172l139 -260l-277 -70l277 -73l-139 -260l-203 166l63 -238h-340l68 238l-205 -166l-141 260l274 73l-274 70l141 260l201 -172l-64 236h340z" />
    <glyph glyph-name="plus" unicode="+" horiz-adv-x="1282" 
d="M1221 477h-394v-360h-374v360h-392v309h392v359h374v-359h394v-309z" />
    <glyph glyph-name="comma" unicode="," horiz-adv-x="704" 
d="M522 -227h-301q72 133 86 227h-244v399h578v-325q0 -67 -36.5 -150t-82.5 -151z" />
    <glyph glyph-name="hyphen" unicode="-" horiz-adv-x="811" 
d="M68 799h675v-381h-675v381z" />
    <glyph glyph-name="period" unicode="." horiz-adv-x="704" 
d="M641 399v-399h-578v399h578z" />
    <glyph glyph-name="slash" unicode="/" horiz-adv-x="1005" 
d="M1030 1655l-696 -1923h-412l694 1923h414z" />
    <glyph glyph-name="zero" unicode="0" horiz-adv-x="2326" 
d="M2279 795v-62q0 -66 -9.5 -129.5t-39 -142t-76.5 -145t-130 -132t-191.5 -111.5t-268.5 -74t-354 -28h-92q-195 0 -355 28t-269 74t-192 111.5t-130 132t-76.5 145t-39 142t-9.5 129.5v62q0 67 9.5 130.5t39 141.5t76.5 144t130 131t192 110t269 72.5t355 27.5h92
q194 0 354 -27.5t268.5 -72.5t191.5 -110t130 -131t76.5 -144t39 -141.5t9.5 -130.5zM1675 756v26q0 51 -13.5 98.5t-49.5 96.5t-91.5 85t-147.5 58.5t-210 22.5q-121 0 -214.5 -23t-148.5 -58.5t-90.5 -84.5t-48 -96t-12.5 -99v-24q0 -42 10 -82.5t31.5 -84t61.5 -79.5
t94.5 -65t136 -45.5t180.5 -16.5t180 16t135.5 45t94 65t61 79t31.5 83.5t10 82.5z" />
    <glyph glyph-name="one" unicode="1" horiz-adv-x="1087" 
d="M406 901h-369v318q196 12 311 89t172 216h463v-1524h-577v901z" />
    <glyph glyph-name="two" unicode="2" horiz-adv-x="2070" 
d="M2009 0h-1958v178q0 43 1.5 74.5t10 81t23.5 88t44.5 88.5t70 90.5t103 86.5t141 83t186.5 73t237 64q130 31 295 60q94 19 141 37t59.5 34.5t12.5 42.5q0 22 -12.5 38.5t-45.5 31.5t-102.5 23t-173.5 8q-99 0 -172 -16t-109 -36t-58 -52.5t-26 -50.5t-7 -44h-594v14
q0 49 6 92.5t28.5 101.5t60 106t106.5 97t161.5 82.5t232 54.5t310.5 21h88q161 0 292.5 -13.5t225.5 -36.5t165.5 -58t115.5 -74t71 -88.5t37.5 -97.5t10.5 -105v-8q0 -99 -31 -167.5t-110.5 -124.5t-213 -96t-340.5 -73l-327 -55q-408 -69 -408 -172h913v180h539v-563z
" />
    <glyph glyph-name="three" unicode="3" horiz-adv-x="2105" 
d="M1087 -29h-98q-180 0 -327.5 23t-245.5 60t-172 89t-114.5 103t-65.5 110.5t-32 102.5t-7 86v18h600q3 -16 4.5 -23t12 -33t25.5 -42t46 -39.5t71.5 -37t104.5 -24t143 -10.5q110 0 190 10t122.5 24.5t67 36.5t30.5 39t6 38q0 106 -188 106h-510v365h495q97 0 134.5 23.5
t37.5 64.5v2q0 19 -5.5 33t-28.5 31t-64 27.5t-119 18t-186 7.5q-104 0 -180 -13.5t-113 -31t-59 -42.5t-26.5 -39.5t-6.5 -30.5v-3h-596v20q0 30 3.5 58.5t15.5 68t32 75t56 75.5t83.5 72.5t119.5 63.5t159.5 52.5t206.5 34t258 12.5h88q182 0 329 -13.5t246 -35t172 -54
t114 -65t65 -74.5t31 -76t7 -75v-12q0 -72 -42.5 -129t-101 -88t-124.5 -43q60 -14 113.5 -39.5t103 -68.5t78.5 -111t29 -154v-14q0 -58 -11 -109t-40.5 -106t-76.5 -99.5t-124 -85.5t-178 -68.5t-243 -44t-315 -16.5z" />
    <glyph glyph-name="four" unicode="4" horiz-adv-x="2076" 
d="M27 621l1065 911h639v-848h317v-393h-317v-291h-580v291h-1124v330zM1151 684v455l-533 -455h533z" />
    <glyph glyph-name="five" unicode="5" horiz-adv-x="2011" 
d="M1077 -29h-98q-138 0 -255.5 12.5t-203.5 33t-156.5 51t-117.5 62.5t-82 71t-54 73.5t-30.5 73t-15 66.5t-3.5 57v14h605q2 -9 4.5 -15.5t12.5 -21.5t24.5 -26.5t42 -26.5t63.5 -24.5t91 -16t122 -6.5q106 0 177.5 14.5t106 41.5t47.5 54.5t13 63.5v8q0 27 -7 49.5
t-29.5 46t-59 39.5t-100 26.5t-148.5 10.5q-91 0 -161 -11.5t-105.5 -25.5t-59.5 -33.5t-30 -29.5t-8 -18h-572v940h1778v-371h-1202v-248q21 17 50.5 33.5t93 43t166.5 42.5t228 16h19q179 0 313.5 -27t216.5 -72t133 -111.5t69.5 -137t18.5 -157.5v-13q0 -58 -10 -110
t-36.5 -109t-69.5 -104t-113 -90t-161 -73t-220.5 -47.5t-286.5 -17.5z" />
    <glyph glyph-name="six" unicode="6" horiz-adv-x="2134" 
d="M1130 -31h-92q-177 0 -322.5 26t-246.5 69.5t-177.5 106t-121.5 128.5t-73.5 145t-38 147.5t-9.5 143.5v49q0 74 10.5 143t39.5 147.5t75 145t122.5 129.5t176.5 106.5t243 70t316 26.5h86q156 0 286.5 -16.5t222.5 -44.5t164 -67.5t116.5 -82t72.5 -91.5t39 -93t11 -90
v-8h-590q-20 30 -35 43q-90 78 -320 78q-110 0 -194 -24t-130.5 -59.5t-75.5 -83t-37.5 -86t-8.5 -77.5v-10q24 17 40 27.5t72.5 35.5t118 39.5t169 27.5t233.5 13h24q186 0 328 -24.5t230.5 -65.5t144 -101.5t77 -125.5t21.5 -144v-18q0 -56 -9 -104.5t-35.5 -104.5
t-70 -101t-118 -88t-173.5 -72.5t-242 -47t-319 -17.5zM692 502v-6q0 -158 404 -158q99 0 173 9.5t116 24t67 36t33 41t8 43.5v6q0 32 -14.5 56t-54 47.5t-122.5 36.5t-206 13q-121 0 -204.5 -12.5t-125 -35t-58 -46.5t-16.5 -55z" />
    <glyph glyph-name="seven" unicode="7" horiz-adv-x="2009" 
d="M63 1524h1905v-342q-11 -13 -62 -70t-90 -102t-99.5 -119.5t-112.5 -145.5q-80 -108 -131 -202.5t-76.5 -184.5t-34 -167t-8.5 -179v-12h-652v182q0 168 78 303.5t299 335.5q49 43 115 100.5t98 85.5t66.5 60t48.5 49t16 27h-796v-295h-564v676z" />
    <glyph glyph-name="eight" unicode="8" horiz-adv-x="2086" 
d="M2017 1143v-19q0 -67 -29.5 -124.5t-79 -96.5t-109 -64t-122.5 -34q75 -13 141 -40.5t119.5 -69.5t85 -103t31.5 -133v-23q0 -45 -7.5 -84.5t-32.5 -88.5t-66.5 -88.5t-115.5 -79t-172.5 -66.5t-245.5 -43.5t-327 -16.5h-88q-183 0 -331.5 16.5t-247.5 43t-172.5 66.5
t-113.5 79.5t-64 89t-30.5 88t-6.5 84.5v23q0 70 32 131t86 103.5t120 70.5t139 41q-66 11 -125.5 35.5t-109 63t-78.5 95.5t-29 125v19q0 39 6 72t28.5 77t60.5 78t109 69.5t166 59t239 38.5t322 15h91q178 0 321 -15t238 -38.5t165.5 -59t108.5 -69.5t60 -78t28 -77t6 -72
zM1413 1087v7q0 16 -4.5 28.5t-16.5 27.5t-38 26t-65.5 21t-102 15t-144.5 5q-99 0 -170 -8t-109 -19t-59.5 -29t-26.5 -32.5t-5 -34.5v-7q0 -21 6 -36.5t28 -33t60.5 -29t108.5 -19.5t167 -8t167.5 8t109 19.5t60.5 29t28 33t6 36.5zM1454 473v6q0 29 -14 50.5t-54 42
t-126.5 31.5t-217.5 11q-106 0 -183 -8t-120 -20t-67.5 -30.5t-31.5 -36t-7 -40.5v-6q0 -21 7.5 -38.5t33 -37.5t68.5 -33.5t120 -22.5t180 -9q130 0 217.5 13t127 35.5t53.5 44t14 48.5z" />
    <glyph glyph-name="nine" unicode="9" horiz-adv-x="2134" 
d="M1442 1024v4q0 154 -404 154q-99 0 -172.5 -9t-115.5 -23.5t-67.5 -35.5t-33.5 -41t-8 -45v-4q0 -24 8 -44t33.5 -41t67.5 -35.5t115.5 -24t172.5 -9.5q404 0 404 154zM1112 -31h-88q-213 0 -380 32.5t-266 82t-163 116t-87.5 128.5t-23.5 125v10h588q5 -12 12.5 -23
t32.5 -30.5t61 -33.5t102.5 -25t150.5 -11q110 0 193.5 25t129.5 61t75 84t37.5 86t8.5 76v8q-192 -145 -606 -145h-27q-185 0 -328.5 25.5t-236 69t-152 105.5t-84 130.5t-24.5 148.5v18q0 56 8.5 104t34.5 102.5t68.5 98.5t115.5 85t170 69t237.5 44.5t313.5 16.5h92
q1008 0 1008 -759v-50q0 -75 -9.5 -144.5t-37.5 -149.5t-72.5 -146.5t-120 -130t-174.5 -107t-242 -70t-317 -26.5z" />
    <glyph glyph-name="colon" unicode=":" horiz-adv-x="708" 
d="M643 1014v-400h-577v400h577zM643 399v-399h-577v399h577z" />
    <glyph glyph-name="semicolon" unicode=";" horiz-adv-x="708" 
d="M643 1014v-400h-577v400h577zM524 -227h-301q72 133 86 227h-243v399h577v-325q0 -67 -36.5 -150t-82.5 -151z" />
    <glyph glyph-name="less" unicode="&#x3c;" horiz-adv-x="1122" 
d="M1057 129l-996 317v349l996 319v-332l-654 -164l654 -159v-330z" />
    <glyph glyph-name="equal" unicode="=" horiz-adv-x="1214" 
d="M70 979h1075v-287h-1075v287zM70 573h1075v-284h-1075v284z" />
    <glyph glyph-name="greater" unicode="&#x3e;" horiz-adv-x="1107" 
d="M66 129v330l645 159l-645 164v332l981 -319v-349z" />
    <glyph glyph-name="question" unicode="?" horiz-adv-x="1857" 
d="M1110 510h-557v137q0 60 10.5 100t42.5 79t97 68.5t169 53.5l203 47q105 23 142.5 49.5t37.5 61.5q0 17 -4 28.5t-21 25t-49 21t-90.5 12.5t-142.5 5q-56 0 -102.5 -4.5t-80 -10t-60.5 -17.5t-44 -20.5t-30 -24.5t-19 -25t-10.5 -27t-5 -24t-2.5 -23h-563v25q0 52 3 87.5
t20.5 92t49.5 95.5t95.5 84.5t152 73t225.5 46t310 18.5h108q150 0 272 -13.5t207 -36.5t149 -56.5t102.5 -70t62 -82t31.5 -86.5t8 -89v-14q0 -72 -20 -131.5t-64 -112t-120 -93.5t-183 -67l-207 -49q-78 -19 -100.5 -44.5t-22.5 -78.5v-10zM1124 399v-399h-575v399h575z
" />
    <glyph glyph-name="at" unicode="@" horiz-adv-x="2729" 
d="M1380 -322q-236 0 -429.5 28t-329.5 76t-239.5 118.5t-166 148t-101.5 173t-53 184t-14 190.5v25q0 104 15.5 194t55 183t103.5 168t166 142t236 112.5t321 71.5t414 26h28q204 0 375 -18t295 -46.5t223.5 -74.5t164 -91t111.5 -108t71 -113.5t37.5 -119t16.5 -113.5
t3 -107v-22q0 -92 -18 -175.5t-66.5 -168t-123 -145.5t-197.5 -99.5t-281 -38.5h-35q-80 0 -145 11t-104 27t-69.5 39.5t-44.5 41t-26 39.5q-22 -22 -52.5 -43.5t-86.5 -50.5t-140 -46.5t-182 -17.5h-29q-79 0 -147.5 12.5t-119 35.5t-92.5 54.5t-68.5 69.5t-46.5 81t-27 88
t-9.5 91.5t5.5 91.5l14 111q7 57 25.5 109.5t57 106t91.5 92.5t135.5 64t183.5 25h31q313 0 496 -164l18 146h543l-94 -734q-9 -75 65 -75q110 0 184 116t74 318v6q0 57 -1.5 92t-11.5 90.5t-28 90.5t-53.5 82t-86 76.5t-127.5 62t-176 50.5t-234 30t-298 12h-28
q-181 0 -328 -19t-251.5 -52t-182.5 -84t-125.5 -107.5t-76.5 -129.5t-39.5 -144t-10.5 -157v-22q0 -79 10.5 -146.5t40 -141.5t77.5 -133t128 -113.5t186 -91t257.5 -58t336.5 -21.5q193 0 359 14t265.5 31.5t193.5 46.5t129 44.5t86 40.5l84 -211q-354 -177 -1117 -177z
M1567 573l4 33q13 108 -44.5 162.5t-180.5 54.5q-107 0 -157 -52.5t-59 -133.5l-6 -47q-13 -91 34 -156t159 -65q221 0 250 204z" />
    <glyph glyph-name="A" unicode="A" horiz-adv-x="2267" 
d="M1358 627l-256 524l-250 -524h506zM1663 0l-119 246h-870l-117 -246h-590l754 1524h782l797 -1524h-637z" />
    <glyph glyph-name="B" unicode="B" horiz-adv-x="2207" 
d="M98 0v1524h1434q129 0 228.5 -19.5t161.5 -52t102 -78t55.5 -93.5t15.5 -103v-23q0 -67 -26 -122.5t-68 -90.5t-84 -55.5t-84 -30.5q38 -9 73 -22t77 -34t76 -51.5t63 -70t45 -94.5t16 -119v-25q0 -440 -643 -440h-1442zM1356 1178h-676v-215h676q155 0 155 106v4
q0 105 -155 105zM1393 621h-713v-263h713q180 0 180 131v7q0 58 -38.5 91.5t-141.5 33.5z" />
    <glyph glyph-name="C" unicode="C" horiz-adv-x="2306" 
d="M1204 -29h-80q-194 0 -354 28t-269.5 73t-193 110t-132 132t-78.5 145.5t-40 143.5t-10 134v60q0 53 5.5 102.5t21 109.5t41 113t69 109t100.5 102t139 87.5t181.5 70t232.5 45t287 16.5h80q191 0 349.5 -24t266 -63t190 -93.5t130 -110t77 -118t39 -111t9.5 -96.5v-27
h-604q-5 17 -8.5 26.5t-19 37t-35.5 46.5t-59.5 44.5t-88.5 41t-124.5 27t-166.5 11.5q-88 0 -160.5 -11t-124.5 -30t-92 -46.5t-64.5 -57.5t-40.5 -67t-22 -71.5t-6 -73.5v-24q0 -44 10 -85.5t31.5 -85.5t61 -80.5t94 -65.5t135.5 -45.5t180 -16.5q92 0 168.5 12.5
t126 30.5t89 45t59.5 48.5t34.5 49.5t18 39t6.5 25h602v-33q0 -48 -10 -98t-40 -113.5t-78 -120t-130.5 -112t-190 -95.5t-265 -65t-347.5 -25z" />
    <glyph glyph-name="D" unicode="D" horiz-adv-x="2320" 
d="M98 0v1524h1082q255 0 451 -41.5t316.5 -108.5t197 -163t105.5 -194.5t29 -213.5v-62q0 -79 -13 -150.5t-46.5 -147.5t-86.5 -139.5t-139 -120.5t-197.5 -97t-268.5 -63t-346 -23h-1084zM680 1124v-721h432q563 0 563 357v12q0 352 -563 352h-432z" />
    <glyph glyph-name="E" unicode="E" horiz-adv-x="1869" 
d="M98 1524h1686v-373h-1112v-190h1089v-371h-1089v-209h1128v-381h-1702v1524z" />
    <glyph glyph-name="F" unicode="F" horiz-adv-x="1822" 
d="M98 1524h1653v-373h-1077v-190h1055v-375h-1055v-586h-576v1524z" />
    <glyph glyph-name="G" unicode="G" horiz-adv-x="2373" 
d="M1122 -29h-47q-173 0 -319 26t-250 69.5t-185.5 105.5t-132 129.5t-83 145t-45.5 148.5t-13 144v58q0 75 12 145.5t45 147.5t84.5 142t136 125.5t194 102.5t265 67t342.5 25h80q193 0 352.5 -22t267 -57t190 -85.5t130 -101.5t77 -112t40 -109t12.5 -100v-2h-606
q-3 12 -7.5 23t-19.5 31.5t-35.5 37.5t-59 36.5t-87 32.5t-122.5 22t-162 9q-148 0 -254.5 -30t-164 -84t-83 -118.5t-25.5 -144.5v-22q0 -76 29.5 -143t89.5 -122.5t163.5 -87.5t239.5 -32q112 0 204.5 15t149.5 37.5t96.5 49.5t55 49.5t15.5 38.5h-535v297h1129v-858h-367
q-8 41 -30 107t-42 104q-23 -26 -52 -51t-92 -61.5t-137.5 -62.5t-191.5 -45.5t-252 -19.5z" />
    <glyph glyph-name="H" unicode="H" horiz-adv-x="2310" 
d="M98 0v1524h582v-539h952v539h580v-1524h-580v580h-952v-580h-582z" />
    <glyph glyph-name="I" unicode="I" horiz-adv-x="776" 
d="M678 1524v-1524h-580v1524h580z" />
    <glyph glyph-name="J" unicode="J" horiz-adv-x="1941" 
d="M987 -23h-125q-150 0 -274.5 24.5t-210.5 65.5t-152 98.5t-105 118t-64 130.5t-33.5 129t-8.5 121v12h572q2 -18 4.5 -33.5t12 -44t23 -51t39 -48.5t59 -43.5t85 -29.5t113.5 -12h16q175 0 256.5 92t81.5 250v768h582v-781q0 -75 -8.5 -143t-33 -147t-63.5 -145
t-107 -129t-156.5 -106t-217 -69.5t-285.5 -26.5z" />
    <glyph glyph-name="K" unicode="K" horiz-adv-x="2142" 
d="M680 0h-582v1524h582v-602l750 602h722l-886 -693l915 -831h-758l-743 682v-682z" />
    <glyph glyph-name="L" unicode="L" horiz-adv-x="1792" 
d="M98 1524h582v-1088h1057v-436h-1639v1524z" />
    <glyph glyph-name="M" unicode="M" horiz-adv-x="2703" 
d="M98 0v1524h799l467 -856l475 856h766v-1524h-575v950l-535 -950h-297l-532 950v-950h-568z" />
    <glyph glyph-name="N" unicode="N" horiz-adv-x="2310" 
d="M98 1524h652l884 -867v867h578v-1524h-582l-954 924v-924h-578v1524z" />
    <glyph glyph-name="O" unicode="O" horiz-adv-x="2408" 
d="M1159 1552h92q160 0 297 -16.5t240 -45t187.5 -70.5t143 -88t103 -102t70.5 -109t42 -113t21.5 -109t5.5 -102v-62q0 -69 -9.5 -132.5t-39 -143t-78 -145.5t-134 -131.5t-198.5 -110.5t-280 -73t-371 -28h-92q-204 0 -371.5 28t-281 73t-199 110.5t-134 131.5t-78 145.5
t-39 143t-9.5 132.5v62q0 69 9.5 132.5t39 142t78 143.5t134 129.5t199 108.5t281 71.5t371.5 27.5zM1759 754v28q0 53 -14 100.5t-52 96.5t-98 84t-160.5 57.5t-230.5 22.5q-132 0 -233.5 -22.5t-161 -57.5t-97 -84.5t-50.5 -96.5t-13 -100v-24q0 -52 14 -100.5t52 -100
t98 -89t160.5 -61.5t230.5 -24t230.5 23t160.5 59.5t98 87.5t52 99.5t14 101.5z" />
    <glyph glyph-name="P" unicode="P" horiz-adv-x="2123" 
d="M1368 477h-688v-477h-582v1524h1270q165 0 291 -26t207 -70t132.5 -109.5t72 -138t20.5 -160.5v-33q0 -87 -21.5 -159.5t-73.5 -139t-132.5 -112t-206.5 -72.5t-289 -27zM680 1143v-285h618q97 0 145 37t48 102v7q0 139 -193 139h-618z" />
    <glyph glyph-name="Q" unicode="Q" horiz-adv-x="2408" 
d="M985 -317v294q-170 12 -310 46.5t-235.5 81t-168 110t-114 126.5t-67.5 136t-34.5 133.5t-8.5 124.5v62q0 70 9.5 134t39 142.5t78.5 143.5t134.5 129t199 108t280.5 71t371 27h92q203 0 369.5 -27t279.5 -71t198.5 -108t134.5 -129t79 -143.5t39.5 -142.5t9.5 -134v-62
q0 -60 -8 -117.5t-31.5 -128.5t-61.5 -132.5t-103.5 -124t-152 -110.5t-212.5 -84.5t-279 -51.5l263 -303h-791zM1759 754v28q0 54 -14 101.5t-52 96.5t-98 84t-160.5 57t-230.5 22q-133 0 -233.5 -22t-160.5 -56.5t-97.5 -83.5t-50.5 -96.5t-13 -102.5v-24q0 -53 14 -102
t52 -100.5t98 -88.5t160.5 -60.5t230.5 -23.5t230.5 23t160.5 59.5t98 87.5t52 99.5t14 101.5z" />
    <glyph glyph-name="R" unicode="R" horiz-adv-x="2191" 
d="M680 1153v-262h668q92 0 134 35.5t42 95.5v2q0 129 -176 129h-668zM680 522v-522h-582v1524h1385q641 0 641 -391v-23q0 -63 -21 -117.5t-53.5 -90.5t-75.5 -64t-81 -43.5t-76 -24.5q146 -33 229.5 -125.5t83.5 -236.5v-226q0 -116 29 -172v-10h-594q-19 22 -19 80v178
q0 135 -71 199.5t-238 64.5h-557z" />
    <glyph glyph-name="S" unicode="S" horiz-adv-x="2121" 
d="M1145 -29h-187q-929 0 -929 541v20h639q2 -30 9.5 -54.5t32 -56t63.5 -53t110 -36.5t166 -15h18q95 0 164 8t108.5 21t63 32.5t30.5 38.5t7 44v2q0 33 -11.5 53.5t-47.5 40t-109.5 29.5t-190.5 14l-282 8q-748 20 -748 459v18q0 79 22.5 144t82 126.5t156 103t253 66.5
t363.5 25h182q926 0 926 -481v-16h-633q-2 21 -8.5 38.5t-29.5 41.5t-60 40.5t-107 28.5t-164 12h-20q-89 0 -152 -6.5t-98 -16t-55 -25t-25.5 -30t-5.5 -34.5v-2q0 -25 12 -43.5t45.5 -35.5t102 -26.5t172.5 -11.5l274 -6q432 -12 618.5 -119.5t186.5 -339.5v-29
q0 -84 -20.5 -153t-82 -139.5t-162.5 -118t-274 -77.5t-405 -30z" />
    <glyph glyph-name="T" unicode="T" horiz-adv-x="2000" 
d="M709 0v1108h-658v416h1897v-416h-658v-1108h-581z" />
    <glyph glyph-name="U" unicode="U" horiz-adv-x="2260" 
d="M82 797v727h584v-682q0 -61 11 -114.5t43 -109.5t82 -95.5t135 -65t196 -25.5q109 0 193 25.5t134.5 65t82 95.5t43 109.5t11.5 114.5v682h582v-727q0 -70 -10 -139t-38.5 -152.5t-74 -156.5t-124 -143t-180 -120t-250 -80.5t-326.5 -30.5h-82q-184 0 -335 30.5t-254 80
t-181.5 120.5t-123 143t-72.5 156.5t-37 152.5t-9 139z" />
    <glyph glyph-name="V" unicode="V" horiz-adv-x="2203" 
d="M1516 0h-773l-770 1524h660l512 -1063l481 1063h604z" />
    <glyph glyph-name="W" unicode="W" horiz-adv-x="3143" 
d="M1278 0h-709l-594 1524h648l346 -1006l305 1006h655l309 -989l336 989h596l-594 -1524h-673l-318 963z" />
    <glyph glyph-name="X" unicode="X" horiz-adv-x="2217" 
d="M678 0h-701l699 782l-676 742h743l387 -449l390 449h690l-660 -736l691 -788h-715l-426 477z" />
    <glyph glyph-name="Y" unicode="Y" horiz-adv-x="2148" 
d="M793 0v573l-834 951h696l445 -527l452 527h637l-815 -955v-569h-581z" />
    <glyph glyph-name="Z" unicode="Z" horiz-adv-x="1953" 
d="M72 1524h1812v-310l-999 -798h1009v-416h-1835v311l971 811h-958v402z" />
    <glyph glyph-name="bracketleft" unicode="[" horiz-adv-x="765" 
d="M98 -268v1923h639v-242h-227v-1438h227v-243h-639z" />
    <glyph glyph-name="backslash" unicode="\" horiz-adv-x="1005" 
d="M674 -268l-697 1923h416l690 -1923h-409z" />
    <glyph glyph-name="bracketright" unicode="]" horiz-adv-x="765" 
d="M29 -268v243h227v1438h-227v242h639v-1923h-639z" />
    <glyph glyph-name="asciicircum" unicode="^" horiz-adv-x="1509" 
d="M1014 868l-262 361l-267 -361h-481l488 656h528l485 -656h-491z" />
    <glyph glyph-name="underscore" unicode="_" horiz-adv-x="1734" 
d="M2 -332v291h1731v-291h-1731z" />
    <glyph glyph-name="grave" unicode="`" 
d="M1090 1194h-506l-228 330h553z" />
    <glyph glyph-name="a" unicode="a" horiz-adv-x="1732" 
d="M1067 473v47l-369 -65q-73 -12 -104 -33t-31 -62v-2q0 -46 40.5 -79t133.5 -33q147 0 238.5 68t91.5 159zM1077 147q-167 -167 -516 -167h-22q-133 0 -234.5 29.5t-160 80.5t-87 112.5t-28.5 131.5v24q0 143 103.5 221.5t342.5 98.5l531 47q34 4 47.5 16.5t13.5 36.5
q0 18 -7.5 31t-30.5 26t-73.5 20t-128.5 7h-8q-67 0 -115.5 -9t-72 -19.5t-38.5 -30t-17 -27.5t-5 -26h-516v12q0 37 4 67t20.5 70t45 70t81.5 62t126 52.5t183 33.5t247 13h115q143 0 257 -12t190 -31.5t131 -49.5t84.5 -58.5t46.5 -67t21.5 -68t4.5 -67.5v-407
q0 -25 9.5 -36t37.5 -11h59v-322h-463q-73 0 -119.5 38t-58.5 109z" />
    <glyph glyph-name="b" unicode="b" horiz-adv-x="1914" 
d="M82 1524h557v-572q82 60 148 91q171 79 387 79h43q146 0 260 -29.5t187 -79.5t121 -121t67.5 -148t19.5 -166v-43q0 -88 -21.5 -166.5t-72.5 -150.5t-127 -124t-192.5 -83t-262.5 -31h-41q-307 0 -526 165q-16 -45 -29 -145h-518v1524zM639 557v-8q0 -103 88.5 -182.5
t245.5 -79.5h12q89 0 154.5 23t100.5 62.5t51 83t16 93.5v8q0 52 -16 96.5t-51.5 83t-100.5 60.5t-154 22h-12q-161 0 -247.5 -77t-86.5 -185z" />
    <glyph glyph-name="c" unicode="c" horiz-adv-x="1816" 
d="M973 -31h-123q-147 0 -267.5 20t-203 52.5t-145 80t-99 96.5t-59 108t-30 109t-7.5 104v36q0 54 7.5 103t29.5 106.5t58.5 105.5t99 94.5t145 78t202.5 51t267 19.5h127q152 0 276 -19.5t206.5 -51t145 -76t96.5 -88t54.5 -94t26.5 -88t6 -75.5v-6h-569q-2 14 -7 28.5
t-16.5 38.5t-34 44t-54 38.5t-82 29.5t-112.5 11h-8q-85 0 -146.5 -22t-93 -60t-45.5 -80.5t-14 -93.5v-10q0 -54 14.5 -100.5t47 -88t93 -65.5t144.5 -24h8q74 0 131 17t87.5 40t51.5 53.5t27 50t9 37.5h569v-4q0 -39 -5 -75.5t-24.5 -89.5t-52.5 -97.5t-95 -91t-144.5 -79
t-209.5 -53t-282 -20.5z" />
    <glyph glyph-name="d" unicode="d" horiz-adv-x="1908" 
d="M1270 551v10q0 101 -91 177.5t-255 76.5h-11q-87 0 -150 -22t-96 -59.5t-48 -80t-15 -92.5v-10q0 -48 17 -92t52 -83t97.5 -62t144.5 -23h9q166 0 256 78.5t90 181.5zM1270 1524h557v-1524h-555v160q-15 -17 -36 -35t-68 -45.5t-102 -48t-141.5 -36t-183.5 -15.5h-34
q-140 0 -253.5 30t-190 81.5t-127.5 123t-74 152t-23 170.5v43q0 87 21.5 164.5t70.5 147.5t122.5 120.5t185.5 80t251 29.5h39q96 0 182.5 -14t139.5 -30t105.5 -43t69.5 -39.5t44 -32.5v561z" />
    <glyph glyph-name="e" unicode="e" horiz-adv-x="1818" 
d="M909 862q-149 0 -222 -43t-95 -123h635q-18 82 -92 124t-226 42zM1780 401v-4q0 -37 -7 -72.5t-29 -79.5t-57.5 -81.5t-98 -74.5t-145.5 -62.5t-205 -41.5t-271 -16h-109q-141 0 -258.5 18t-200.5 49t-147.5 75.5t-104 93.5t-64.5 107t-34.5 112t-9.5 113v41q0 58 9 111
t33 110t63 104.5t102 91t146 73.5t200.5 47.5t259.5 17.5h113q150 0 271.5 -20t205.5 -52.5t147 -81t99.5 -99.5t58.5 -114t29.5 -117t7.5 -117v-61h-1198q13 -93 94 -148t240 -55h2q75 0 133 11.5t89 27.5t52 36.5t27 33.5t8 24h549z" />
    <glyph glyph-name="f" unicode="f" horiz-adv-x="1085" 
d="M1044 1524v-295h-172q-45 0 -60 -18t-15 -62v-47h247v-338h-247v-764h-553v764h-217v338h217v108q0 314 403 314h397z" />
    <glyph glyph-name="g" unicode="g" horiz-adv-x="1929" 
d="M934 811h-12q-88 0 -153 -18.5t-100 -51.5t-51 -70t-16 -81v-10q0 -98 77 -166t243 -68h12q172 0 262 69t90 165v6q0 95 -89 160t-263 65zM1036 -399h-157q-142 0 -259 16t-195.5 41.5t-138.5 61t-93 71t-53.5 75.5t-27 69.5t-6.5 58.5v6h560q20 -92 286 -92h6
q334 0 334 280v23q-164 -164 -536 -164h-33q-147 0 -265 29t-195 78t-128.5 117t-73.5 142.5t-22 157.5v37q0 80 20 152t68.5 139t121 116t184.5 78t253 29h45q102 0 190.5 -12.5t144 -29t106 -42t72 -41t46.5 -36.5v141h557v-918q0 -52 -8.5 -102.5t-32 -110t-61 -111
t-101 -100t-145.5 -83t-201 -55.5t-262 -21z" />
    <glyph glyph-name="h" unicode="h" horiz-adv-x="1837" 
d="M82 0v1524h557v-615q217 217 565 217h13q118 0 213.5 -27t155 -69.5t99.5 -99t56 -111t16 -110.5v-709h-559v526q0 117 -65 185.5t-201 68.5q-138 0 -215.5 -74t-77.5 -194v-512h-557z" />
    <glyph glyph-name="i" unicode="i" horiz-adv-x="720" 
d="M639 1524v-330h-557v330h557zM639 1102v-1102h-557v1102h557z" />
    <glyph glyph-name="j" unicode="j" horiz-adv-x="720" 
d="M639 1524v-330h-557v330h557zM-57 -55h73q38 0 52 14.5t14 60.5v1082h557v-1184q0 -158 -63.5 -230.5t-165.5 -72.5h-467v330z" />
    <glyph glyph-name="k" unicode="k" horiz-adv-x="1652" 
d="M639 0h-557v1524h557v-852l377 430h600l-449 -488l514 -614h-632l-410 496v-496z" />
    <glyph glyph-name="l" unicode="l" horiz-adv-x="720" 
d="M639 1524v-1524h-557v1524h557z" />
    <glyph glyph-name="m" unicode="m" horiz-adv-x="2830" 
d="M639 0h-557v1102h553v-197q27 27 44.5 43t72 54.5t108.5 61.5t141 42.5t181 19.5h12q329 0 455 -227q244 227 577 227h15q113 0 203.5 -27t146 -70t93 -99.5t52 -111t14.5 -109.5v-709h-557v528q0 115 -54 183.5t-173 68.5q-127 0 -198.5 -75t-71.5 -191v-514h-559v528
q0 115 -54.5 183.5t-173.5 68.5q-127 0 -198.5 -75t-71.5 -191v-514z" />
    <glyph glyph-name="n" unicode="n" horiz-adv-x="1837" 
d="M82 0v1102h553v-195q23 21 31.5 29t44.5 36t63.5 43.5t78 39.5t98.5 37t115 23.5t138 10.5h13q118 0 213.5 -27t155 -69.5t99.5 -99t56 -111t16 -110.5v-709h-559v526q0 117 -65 185.5t-201 68.5q-138 0 -215.5 -74t-77.5 -194v-512h-557z" />
    <glyph glyph-name="o" unicode="o" horiz-adv-x="1898" 
d="M1026 -31h-152q-146 0 -267.5 19.5t-206.5 52t-150.5 79t-104.5 96t-63.5 108t-33.5 110.5t-9 107v32q0 54 8.5 104.5t33 108t63.5 106t104 94t149.5 77.5t206 51t268.5 19h156q832 0 832 -558v-36q0 -57 -7 -106.5t-29 -109t-58.5 -108t-100.5 -96t-149.5 -79.5
t-210.5 -51.5t-279 -19.5zM952 821h-2q-79 0 -141 -15.5t-99.5 -40.5t-62 -59.5t-34 -69t-9.5 -73.5v-8q0 -39 9 -75t33.5 -73t62 -63.5t99.5 -43.5t142 -17h2q78 0 140 17.5t99 45t61.5 64.5t34 72.5t9.5 72.5v8q0 49 -16.5 92t-53 82t-107 61.5t-167.5 22.5z" />
    <glyph glyph-name="p" unicode="p" horiz-adv-x="1910" 
d="M639 557v-8q0 -48 20.5 -93t60 -83.5t107.5 -62t154 -23.5h10q89 0 153.5 23.5t98.5 63.5t49 83t15 92v8q0 40 -9 76t-31.5 70.5t-57 59t-90.5 39.5t-128 15h-10q-88 0 -156 -22t-107.5 -60t-59 -83t-19.5 -95zM82 1102h557v-154q24 22 59 45t101 55.5t165 53t212 20.5
h43q147 0 261.5 -30t187 -79.5t119.5 -120t66 -146t19 -162.5v-43q0 -86 -20 -163.5t-69 -151.5t-123.5 -127.5t-192 -86t-265.5 -32.5h-39q-109 0 -206 18.5t-161 47t-100.5 50t-56.5 39.5v-520h-557v1487z" />
    <glyph glyph-name="q" unicode="q" horiz-adv-x="1906" 
d="M1313 1102h514v-1487h-557v535q-25 -25 -61 -49t-99.5 -54t-160.5 -48.5t-212 -18.5h-28q-145 0 -260.5 31t-191 83.5t-125.5 125t-71.5 151.5t-21.5 168v43q0 85 21 161t70 146.5t122.5 121t186 81t253.5 30.5h37q342 0 549 -168q32 77 35 148zM1270 553v10
q0 101 -91 176.5t-257 75.5h-11q-86 0 -148.5 -22t-95.5 -59.5t-48 -80t-15 -92.5v-10q0 -48 16 -91.5t49.5 -83.5t96.5 -63.5t147 -23.5h11q86 0 154 23.5t109 62t62 84.5t21 94z" />
    <glyph glyph-name="r" unicode="r" horiz-adv-x="1617" 
d="M635 1102v-203q16 24 38 48.5t64 58t90.5 59t119.5 43.5t149 18h24q106 0 188 -28.5t133 -74.5t84 -111t45.5 -131.5t12.5 -141.5v-111h-541v39q0 101 -48 163.5t-150 62.5q-96 0 -150.5 -65.5t-54.5 -172.5v-555h-557v1102h553z" />
    <glyph glyph-name="s" unicode="s" horiz-adv-x="1667" 
d="M874 -31h-112q-137 0 -249 14.5t-187 37.5t-131.5 57t-87.5 67.5t-50 74.5t-24.5 73t-5.5 67v15h567q0 -20 7 -39t28 -43t70 -38.5t122 -14.5h4q71 0 118.5 7.5t70 21.5t31 28.5t8.5 34.5v4q0 29 -14 46t-61.5 29t-135.5 15l-234 6q-569 20 -569 346v13q0 59 16.5 105.5
t63.5 92.5t125 76t209.5 49t308.5 19h108q124 0 226.5 -10t176 -27t130.5 -42.5t92.5 -54.5t57.5 -64.5t31 -70t9 -73.5v-15h-557q-3 20 -9.5 33t-27 31.5t-67 28.5t-117.5 10h-2q-87 0 -135.5 -9.5t-64 -24.5t-15.5 -42v-2q0 -24 15 -39.5t62 -27.5t128 -15l231 -6
q148 -5 253.5 -22t173 -44.5t106 -71.5t53 -93.5t14.5 -119.5v-14q0 -47 -8 -85.5t-29.5 -78.5t-57.5 -71t-94.5 -58.5t-136.5 -46t-188 -29t-246 -10.5z" />
    <glyph glyph-name="t" unicode="t" horiz-adv-x="1052" 
d="M1001 0h-471q-292 0 -292 313v451h-211v338h211v321h553v-321h210v-338h-210v-326q0 -54 17.5 -75t74.5 -21h118v-342z" />
    <glyph glyph-name="u" unicode="u" horiz-adv-x="1816" 
d="M1735 1102v-1102h-553v197q-222 -222 -559 -222h-15q-118 0 -212 28t-151.5 72t-96 102.5t-53.5 115t-15 113.5v696h559v-527q0 -114 61 -183.5t193 -69.5q135 0 211 75.5t76 192.5v512h555z" />
    <glyph glyph-name="v" unicode="v" horiz-adv-x="1714" 
d="M500 0l-523 1102h596l304 -717l288 717h572l-502 -1102h-735z" />
    <glyph glyph-name="w" unicode="w" horiz-adv-x="2496" 
d="M1042 0h-628l-434 1102h579l215 -694l211 694h574l215 -692l211 692h532l-410 -1102h-622l-221 668z" />
    <glyph glyph-name="x" unicode="x" horiz-adv-x="1736" 
d="M588 0h-608l507 567l-497 535h633l251 -289l246 289h613l-486 -527l512 -575h-620l-277 324z" />
    <glyph glyph-name="y" unicode="y" horiz-adv-x="1693" 
d="M244 -385v340h250q51 0 51 35v2q0 24 -47 110l-521 1000h594l308 -709l284 709h553l-530 -1149q-81 -177 -179.5 -257.5t-244.5 -80.5h-518z" />
    <glyph glyph-name="z" unicode="z" horiz-adv-x="1540" 
d="M1495 0h-1450v299l733 477h-733v326h1448v-293l-756 -471h758v-338z" />
    <glyph glyph-name="braceleft" unicode="{" horiz-adv-x="804" 
d="M778 -268h-319q-184 0 -275.5 56t-91.5 177q0 57 27.5 138t60.5 148t60.5 135.5t27.5 102.5q0 89 -90 89h-139v241h139q90 0 90 72q0 37 -27.5 105t-60.5 133t-60.5 143.5t-27.5 134.5q0 124 89 186t278 62h319v-242h-174q-92 0 -92 -74q0 -36 34 -118t67.5 -170.5
t33.5 -139.5q0 -88 -49 -137.5t-166 -73.5q116 -23 165.5 -66.5t49.5 -117.5q0 -44 -21 -113t-46.5 -128.5t-46.5 -119.5t-21 -89q0 -91 109 -91h157v-243z" />
    <glyph glyph-name="bar" unicode="|" horiz-adv-x="759" 
d="M571 1655v-1923h-383v1923h383z" />
    <glyph glyph-name="braceright" unicode="}" horiz-adv-x="804" 
d="M29 -268v243h155q109 0 109 91q0 35 -33 120.5t-66.5 179.5t-33.5 150q0 74 48.5 117.5t164.5 66.5q-116 24 -164.5 73.5t-48.5 137.5q0 51 33 139.5t66.5 170.5t33.5 118q0 74 -92 74h-172v242h317q189 0 278 -62t89 -186q0 -56 -27 -134.5t-60 -143.5t-60 -133
t-27 -105q0 -72 88 -72h139v-241h-139q-88 0 -88 -89q0 -34 27 -102.5t60 -135.5t60 -148t27 -138q0 -121 -91.5 -177t-275.5 -56h-317z" />
    <glyph glyph-name="asciitilde" unicode="~" horiz-adv-x="1421" 
d="M1057 498q-111 0 -191.5 29.5t-210.5 101.5q-112 61 -135 68q-16 5 -31 5q-47 0 -47 -61v-178h-395v303q0 50 9 96t31.5 92t58 80t93 55t130.5 21q59 0 106.5 -7.5t103.5 -30.5t82.5 -36.5t102.5 -54.5q14 -7 35 -18.5t31.5 -17t26 -13.5t24 -12t19.5 -8t19 -5.5t15 -1.5
q45 0 45 64v180h395v-352q0 -56 -16.5 -106.5t-52 -95t-99.5 -71t-149 -26.5z" />
    <glyph glyph-name="exclamdown" unicode="&#xa1;" horiz-adv-x="737" 
d="M713 -422h-715l188 1032h340zM66 702v400h579v-400h-579z" />
    <glyph glyph-name="cent" unicode="&#xa2;" horiz-adv-x="1845" 
d="M1028 -158h-209v127q-141 2 -257.5 23t-196 54.5t-139.5 81t-95 96.5t-56.5 107t-28.5 106.5t-7 101.5v36q0 53 7 100.5t28.5 104.5t56.5 104.5t95 94t139.5 78.5t195.5 53t258 23v124h209v-124q147 -2 267 -22.5t199.5 -52.5t140 -76.5t93.5 -87.5t53 -93t25.5 -86.5
t5.5 -73.5v-6h-567q-3 21 -12 42t-30.5 51t-66.5 54.5t-108 36.5v-532q63 12 108 37.5t66.5 57.5t30.5 54t12 43h567v-4q0 -28 -2.5 -55.5t-12.5 -66t-26 -72.5t-46 -73.5t-70 -72t-100 -63.5t-134 -52.5t-174.5 -35.5t-218.5 -15v-127zM604 569v-10q0 -46 10.5 -86.5
t34 -78.5t67 -65.5t103.5 -39.5v530q-116 -19 -165.5 -88.5t-49.5 -161.5z" />
    <glyph glyph-name="sterling" unicode="&#xa3;" horiz-adv-x="1966" 
d="M1911 535v-535h-1878v338h117q102 0 154 33t52 108v4q0 64 -30 162h-293v232h217q-31 109 -31 188v14q0 70 17.5 130.5t69 124t134.5 107.5t224.5 72.5t328.5 28.5h84q122 0 224.5 -11.5t178.5 -31t137 -49.5t102 -61t71 -72t46.5 -77t26.5 -80.5t12.5 -78.5t2.5 -75v-19
h-569q-2 24 -5.5 41.5t-12.5 44t-27 45.5t-45 37t-71 27.5t-101 9.5q-80 0 -135 -17t-83 -48.5t-39.5 -67t-11.5 -80.5q0 -39 13 -102h720v-232h-680q7 -47 7 -76q0 -157 -158 -231h637v197h594z" />
    <glyph glyph-name="yen" unicode="&#xa5;" horiz-adv-x="2080" 
d="M760 0v324h-529v180h529v98h-529v180h394l-666 742h686l424 -502l430 502h625l-647 -742h395v-180h-529v-98h529v-180h-529v-324h-583z" />
    <glyph glyph-name="brokenbar" unicode="&#xa6;" horiz-adv-x="759" 
d="M571 1655v-871h-383v871h383zM571 672v-940h-383v940h383z" />
    <glyph glyph-name="section" unicode="&#xa7;" horiz-adv-x="1957" 
d="M1319 406q65 43 65 108q0 54 -42 90t-160 55q-299 46 -559 99q-28 -14 -48 -42.5t-20 -66.5q0 -54 44.5 -91t164.5 -56q524 -90 555 -96zM1022 -428h-113q-156 0 -282 17.5t-208.5 44.5t-144 68t-94 80t-51.5 89t-24 86.5t-5 79.5v8h551q2 -18 4 -30t10 -32t20.5 -34.5
t36.5 -31.5t56 -27.5t81 -17.5t110 -7h10q98 0 155 14.5t75 35t18 50.5v4q0 24 -7.5 40.5t-31 33.5t-73 31t-128.5 26l-418 62q-153 21 -261 60.5t-168 93t-86.5 113t-26.5 130.5v21q0 120 84 193.5t221 100.5q-176 93 -176 289v21q0 87 36.5 151.5t123 115t241.5 76
t379 25.5h115q146 0 263 -14t196.5 -36t137.5 -57t90 -70t51 -81.5t24.5 -84.5t5.5 -87v-6h-547q-3 21 -6.5 35.5t-20.5 38.5t-45 39t-83 27t-130 12h-14q-110 0 -169.5 -11.5t-77 -28.5t-17.5 -48v-4q0 -28 14 -45.5t63.5 -35.5t145.5 -34l481 -70q151 -22 253 -57
t158.5 -84.5t79.5 -106t23 -131.5v-20q0 -53 -19 -98.5t-49 -76.5t-72 -56t-81.5 -40t-83.5 -26q170 -89 170 -291v-18q0 -414 -770 -414z" />
    <glyph glyph-name="dieresis" unicode="&#xa8;" 
d="M1255 1524v-330h-487v330h487zM674 1524v-330h-486v330h486z" />
    <glyph glyph-name="copyright" unicode="&#xa9;" horiz-adv-x="2426" 
d="M1237 -25h-47q-190 0 -349 21.5t-275.5 60t-206.5 94t-148.5 120t-95.5 142.5t-52.5 156t-15.5 166v58q0 86 15 163t52 154.5t95 141.5t148 120t206 94t275 60t350 22h49q191 0 350.5 -22t276 -60.5t206.5 -94.5t148 -120t95 -141t52 -154t15 -163v-58q0 -760 -1143 -760
zM322 780v-35q0 -577 870 -577h43q870 0 870 577v35q0 105 -25 189.5t-86.5 158.5t-159 123.5t-249 78t-350.5 28.5h-43q-199 0 -350.5 -28.5t-249 -78t-159 -123.5t-86.5 -158.5t-25 -189.5zM1251 301h-43q-126 0 -229.5 15.5t-174.5 41.5t-125.5 63t-86 75.5t-51.5 84.5
t-26.5 84.5t-6.5 79.5v48q0 42 6.5 80.5t25.5 83.5t50.5 82.5t85 73.5t125 61t175 40t230.5 15h41q126 0 230 -14.5t174 -38t123 -57t82.5 -67t47.5 -72.5t23.5 -68.5t5.5 -59.5v-14h-456q-3 12 -7.5 22.5t-22 31t-42.5 34.5t-73.5 25.5t-110.5 11.5q-146 0 -203 -50
t-57 -133v-14q0 -30 7 -56t25 -52.5t46.5 -45.5t75.5 -31t108 -12q62 0 110.5 12.5t73.5 29t42 39t21.5 35t6.5 24.5h456v-21q0 -32 -5.5 -62.5t-24 -70.5t-48 -74t-82 -68t-122 -58t-172.5 -39t-228 -15z" />
    <glyph glyph-name="ordfeminine" unicode="&#xaa;" horiz-adv-x="1247" 
d="M535 965q94 0 150 43.5t56 103.5v23l-227 -41q-88 -18 -88 -66q0 -63 109 -63zM762 893q-117 -117 -361 -117h-16q-98 0 -169.5 19.5t-111 54t-57.5 75t-18 87.5v14q0 94 80.5 146t259.5 69l329 29q25 5 34 11.5t9 23.5q0 16 -9 26t-43 17.5t-95 7.5h-12q-150 0 -150 -68
h-385v8q0 25 2 43t13 45t30 46.5t56.5 41t89 35t130.5 22.5t179 9h80q99 0 178 -8t132 -20.5t91.5 -32t60 -38.5t33.5 -44t15.5 -44.5t3.5 -43.5v-258q0 -11 1.5 -17t8.5 -11t20 -5h46v-225h-336q-48 0 -80 26t-39 76z" />
    <glyph glyph-name="guillemotleft" unicode="&#xab;" horiz-adv-x="1167" 
d="M412 588l237 -355h-379l-247 355l247 348h383zM905 588l225 -355h-378l-238 355l244 348h381z" />
    <glyph glyph-name="registered" unicode="&#xae;" horiz-adv-x="1376" 
d="M655 1548h72q107 0 195.5 -13.5t151 -36.5t110.5 -56t77.5 -69t47.5 -78.5t25 -81t7 -80.5v-29q0 -62 -17.5 -118t-61.5 -111.5t-112 -96t-177 -65.5t-248 -25h-70q-146 0 -257.5 25t-179 65t-110 96.5t-58 111.5t-15.5 118v29q0 42 7 80.5t26 81t49 78.5t78.5 69
t111.5 56t152 36.5t196 13.5zM688 809h6q92 0 166.5 10.5t124.5 27.5t86.5 42.5t57 51.5t32.5 60t15.5 61.5t3.5 61.5q0 33 -3.5 60t-15.5 59.5t-32.5 57t-57 49t-86.5 40t-124.5 25.5t-166.5 10h-6q-94 0 -169 -9.5t-126 -25t-87.5 -39.5t-57.5 -48.5t-32.5 -58t-15 -61.5
t-3.5 -65q0 -34 3.5 -61t15.5 -60.5t32.5 -58.5t57.5 -50.5t87.5 -42t125.5 -26.5t169 -10zM602 1157h146q51 0 51 39q0 18 -11.5 26.5t-39.5 8.5h-146v-74zM602 1042v-141h-231v438h454q203 0 203 -112v-2q0 -44 -31 -69t-73 -30q53 -10 80.5 -37.5t27.5 -66.5v-72
q0 -28 12 -43v-6h-235q-10 10 -10 29v47q0 36 -14 50.5t-52 14.5h-131z" />
    <glyph glyph-name="macron" unicode="&#xaf;" 
d="M260 1214v265h926v-265h-926z" />
    <glyph glyph-name="degree" unicode="&#xb0;" horiz-adv-x="880" 
d="M440 752q-181 0 -300.5 110.5t-119.5 286.5t119.5 286.5t300.5 110.5q180 0 300 -110.5t120 -286.5t-120 -286.5t-300 -110.5zM440 989q74 0 119 44t45 116t-45.5 117t-118.5 45q-72 0 -118 -45t-46 -117t46 -116t118 -44z" />
    <glyph glyph-name="acute" unicode="&#xb4;" 
d="M356 1194l183 330h548l-227 -330h-504z" />
    <glyph glyph-name="paragraph" unicode="&#xb6;" horiz-adv-x="1660" 
d="M662 0v647h-119q-138 0 -240.5 32t-162.5 90.5t-88.5 133t-28.5 166.5v39q0 75 13.5 134.5t49.5 113.5t93.5 90t150 57t215.5 21h1093v-254h-155v-1270h-312v1270h-200v-1270h-309z" />
    <glyph glyph-name="periodcentered" unicode="&#xb7;" horiz-adv-x="704" 
d="M641 850v-399h-578v399h578z" />
    <glyph glyph-name="cedilla" unicode="&#xb8;" 
d="M346 -530v188h223q74 0 74 45t-74 45h-145v252h283v-100q97 0 167 -10t113 -27t69 -44t35 -57t9 -71v-6q0 -38 -9.5 -67.5t-36 -58t-69.5 -47.5t-114 -30.5t-166 -11.5h-359z" />
    <glyph glyph-name="ordmasculine" unicode="&#xba;" horiz-adv-x="1300" 
d="M700 770h-100q-101 0 -184.5 13t-141.5 34.5t-102.5 52t-71 63.5t-43 71.5t-22.5 72.5t-6 70v22q0 36 6 69.5t22.5 71.5t43 70t70.5 62t102.5 50.5t142 33t184.5 12.5h102q104 0 189.5 -12.5t143.5 -33t102 -51t69 -61.5t40.5 -69.5t20.5 -71.5t5 -70v-22q0 -54 -10 -100
t-45.5 -99.5t-95 -90.5t-167.5 -62t-254 -25zM442 1161v-4q0 -68 47.5 -117t159.5 -49h2q112 0 159.5 49t47.5 117v4q0 70 -48.5 115t-158.5 45h-2q-110 0 -158.5 -45t-48.5 -115z" />
    <glyph glyph-name="guillemotright" unicode="&#xbb;" horiz-adv-x="1167" 
d="M262 588l-233 348h381l243 -348l-237 -355h-379zM897 233h-379l238 355l-242 348h383l248 -348z" />
    <glyph glyph-name="onequarter" unicode="&#xbc;" horiz-adv-x="2060" 
d="M236 1188h-205v190q117 4 180 42t90 104h315v-754h-380v418zM1581 1524h399l-1679 -1524h-387zM944 342l524 414h412v-389h154v-220h-154v-147h-379v147h-557v195zM1241 367h260v204z" />
    <glyph glyph-name="onehalf" unicode="&#xbd;" horiz-adv-x="2211" 
d="M1581 1524h399l-1679 -1524h-387zM236 1188h-205v190q117 4 180 42t90 104h315v-754h-380v418zM2175 0h-1073v96q0 42 5.5 73t23 68t53 66.5t91 59t143.5 54t204 44.5q69 11 108 22.5t50.5 21.5t11.5 23v2q0 45 -143 45q-162 0 -162 -88h-373v9q0 274 510 274h39
q126 0 219.5 -13t149 -34t89 -53.5t45 -65.5t11.5 -76v-10q0 -107 -106 -155t-377 -78q-27 -4 -65 -9t-58 -7.5t-46.5 -6.5t-40 -7.5t-29 -8t-23.5 -9.5t-13 -12h756v-225z" />
    <glyph glyph-name="threequarters" unicode="&#xbe;" horiz-adv-x="2451" 
d="M1970 1524h400l-1680 -1524h-387zM602 758h-67q-113 0 -202 14.5t-143 40.5t-91 55t-54 63.5t-23 59.5t-6 51v11h377q0 -7 2.5 -15.5t13 -21t28 -22t52 -16.5t80.5 -7q75 0 117 9.5t52 20.5t10 27v4q0 22 -19 32.5t-70 10.5h-229v185h219q84 0 84 34v4q0 14 -10 22.5
t-50 15.5t-112 7q-45 0 -78.5 -5.5t-50 -12.5t-26 -17t-11.5 -16t-2 -12h-364v10q0 17 2.5 33t13.5 42.5t30 49t56.5 47t87.5 41.5t128.5 28t174.5 11h70q136 0 235 -12t153.5 -29.5t86 -44.5t40.5 -51t9 -55v-9q0 -54 -44.5 -88.5t-113.5 -42.5q84 -13 137.5 -60.5
t53.5 -123.5v-8q0 -41 -11.5 -74.5t-46.5 -69.5t-93 -60.5t-159.5 -40t-236.5 -15.5zM1337 342l525 414h411v-389h154v-220h-154v-147h-379v147h-557v195zM1634 367h260v204z" />
    <glyph glyph-name="questiondown" unicode="&#xbf;" horiz-adv-x="1841" 
d="M727 592h557v-137q0 -60 -10.5 -100t-42.5 -79t-97 -68.5t-169 -53.5l-203 -48q-106 -23 -143 -49t-37 -61q0 -17 4 -28.5t21 -25t49 -21t90.5 -12.5t142.5 -5q56 0 102.5 4.5t80 10t60.5 17.5t44 20.5t30 24.5t19 25t10.5 27t5 24t2.5 23h563v-25q0 -52 -3 -87.5
t-20.5 -92t-49.5 -95.5t-95.5 -84.5t-152 -73t-225.5 -46t-310 -18.5h-108q-150 0 -272 13.5t-207 36.5t-149 56.5t-102.5 70t-62 82t-31.5 86.5t-8 89v14q0 72 20 131.5t64 112t120 93.5t183 67l207 49q78 19 100.5 44.5t22.5 78.5v10zM713 702v400h575v-400h-575z" />
    <glyph glyph-name="Agrave" unicode="&#xc0;" horiz-adv-x="2267" 
d="M1358 627l-256 524l-250 -524h506zM1663 0l-119 246h-870l-117 -246h-590l754 1524h782l797 -1524h-637zM1212 1933l162 -317h-526l-207 317h571z" />
    <glyph glyph-name="Aacute" unicode="&#xc1;" horiz-adv-x="2267" 
d="M1358 627l-256 524l-250 -524h506zM1663 0l-119 246h-870l-117 -246h-590l754 1524h782l797 -1524h-637zM854 1616l162 317h571l-207 -317h-526z" />
    <glyph glyph-name="Acircumflex" unicode="&#xc2;" horiz-adv-x="2267" 
d="M1358 627l-256 524l-250 -524h506zM1663 0l-119 246h-870l-117 -246h-590l754 1524h782l797 -1524h-637zM1399 1933l336 -317h-500l-127 119l-125 -119h-494l332 317h578z" />
    <glyph glyph-name="Atilde" unicode="&#xc3;" horiz-adv-x="2267" 
d="M1358 627l-256 524l-250 -524h506zM1663 0l-119 246h-870l-117 -246h-590l754 1524h782l797 -1524h-637zM1384 1624h-10q-66 0 -118.5 11.5t-157.5 47.5q-85 31 -123 31q-37 0 -37 -43v-59h-330v174q0 36 9.5 67.5t32.5 63.5t72 51t118 19h8q23 0 46 -2.5t37.5 -4
t44.5 -9.5t40 -10.5t54 -16t58 -17.5q95 -31 121 -31q17 0 26 11.5t9 29.5v60h330v-162q0 -211 -230 -211z" />
    <glyph glyph-name="Adieresis" unicode="&#xc4;" horiz-adv-x="2267" 
d="M1358 627l-256 524l-250 -524h506zM1663 0l-119 246h-870l-117 -246h-590l754 1524h782l797 -1524h-637zM1663 1933v-317h-502v317h502zM1063 1933v-317h-504v317h504z" />
    <glyph glyph-name="Aring" unicode="&#xc5;" horiz-adv-x="2267" 
d="M1358 627l-256 524l-250 -524h506zM1663 0l-119 246h-870l-117 -246h-590l754 1524h782l797 -1524h-637zM705 1841q0 244 409 244q404 0 404 -244q0 -54 -19 -95.5t-63.5 -76.5t-125.5 -53.5t-196 -18.5q-409 0 -409 244zM956 1843q0 -94 158 -94q154 0 154 94
q0 90 -154 90q-158 0 -158 -90z" />
    <glyph glyph-name="AE" unicode="&#xc6;" horiz-adv-x="3104" 
d="M1368 618v545l-391 -545h391zM1368 0v238h-666l-170 -238h-585l1106 1524h1966v-373h-1077v-190h1056v-371h-1056v-209h1093v-381h-1667z" />
    <glyph glyph-name="Ccedilla" unicode="&#xc7;" horiz-adv-x="2306" 
d="M1204 -29h-80q-194 0 -354 28t-269.5 73t-193 110t-132 132t-78.5 145.5t-40 143.5t-10 134v60q0 53 5.5 102.5t21 109.5t41 113t69 109t100.5 102t139 87.5t181.5 70t232.5 45t287 16.5h80q191 0 349.5 -24t266 -63t190 -93.5t130 -110t77 -118t39 -111t9.5 -96.5v-27
h-604q-5 17 -8.5 26.5t-19 37t-35.5 46.5t-59.5 44.5t-88.5 41t-124.5 27t-166.5 11.5q-88 0 -160.5 -11t-124.5 -30t-92 -46.5t-64.5 -57.5t-40.5 -67t-22 -71.5t-6 -73.5v-24q0 -44 10 -85.5t31.5 -85.5t61 -80.5t94 -65.5t135.5 -45.5t180 -16.5q92 0 168.5 12.5
t126 30.5t89 45t59.5 48.5t34.5 49.5t18 39t6.5 25h602v-33q0 -48 -10 -98t-40 -113.5t-78 -120t-130.5 -112t-190 -95.5t-265 -65t-347.5 -25zM799 -530v188h223q74 0 74 45t-74 45h-145v252h282v-100q97 0 167 -10t113 -27t69 -44t35 -57t9 -71v-6q0 -38 -9.5 -67.5
t-36 -58t-69.5 -47.5t-114 -30.5t-166 -11.5h-358z" />
    <glyph glyph-name="Egrave" unicode="&#xc8;" horiz-adv-x="1869" 
d="M98 1524h1686v-373h-1112v-190h1089v-371h-1089v-209h1128v-381h-1702v1524zM1104 1933l162 -317h-527l-207 317h572z" />
    <glyph glyph-name="Eacute" unicode="&#xc9;" horiz-adv-x="1869" 
d="M98 1524h1686v-373h-1112v-190h1089v-371h-1089v-209h1128v-381h-1702v1524zM674 1616l162 317h571l-207 -317h-526z" />
    <glyph glyph-name="Ecircumflex" unicode="&#xca;" horiz-adv-x="1869" 
d="M98 1524h1686v-373h-1112v-190h1089v-371h-1089v-209h1128v-381h-1702v1524zM1249 1933l336 -317h-500l-127 119l-124 -119h-494l332 317h577z" />
    <glyph glyph-name="Edieresis" unicode="&#xcb;" horiz-adv-x="1869" 
d="M98 1524h1686v-373h-1112v-190h1089v-371h-1089v-209h1128v-381h-1702v1524zM1511 1933v-317h-501v317h501zM911 1933v-317h-503v317h503z" />
    <glyph glyph-name="Igrave" unicode="&#xcc;" horiz-adv-x="776" 
d="M678 1524v-1524h-580v1524h580zM492 1933l161 -317h-526l-207 317h572z" />
    <glyph glyph-name="Iacute" unicode="&#xcd;" horiz-adv-x="776" 
d="M678 1524v-1524h-580v1524h580zM131 1616l162 317h571l-207 -317h-526z" />
    <glyph glyph-name="Icircumflex" unicode="&#xce;" horiz-adv-x="776" 
d="M678 1524v-1524h-580v1524h580zM676 1933l336 -317h-500l-127 119l-125 -119h-493l331 317h578z" />
    <glyph glyph-name="Idieresis" unicode="&#xcf;" horiz-adv-x="776" 
d="M678 1524v-1524h-580v1524h580zM940 1933v-317h-502v317h502zM340 1933v-317h-504v317h504z" />
    <glyph glyph-name="Eth" unicode="&#xd0;" horiz-adv-x="2351" 
d="M129 0v606h-125v322h125v596h1081q184 0 337.5 -21.5t265.5 -58.5t199 -91t142.5 -115.5t91 -135.5t50 -146.5t14.5 -152.5v-62q0 -79 -13 -150.5t-46.5 -147.5t-86.5 -139.5t-139.5 -120.5t-198 -97t-268.5 -63t-346 -23h-1083zM711 1124v-196h616v-322h-616v-203h432
q563 0 563 357v12q0 352 -563 352h-432z" />
    <glyph glyph-name="Ntilde" unicode="&#xd1;" horiz-adv-x="2310" 
d="M98 1524h652l884 -867v867h578v-1524h-582l-954 924v-924h-578v1524zM1436 1624h-11q-66 0 -118.5 11.5t-157.5 47.5q-85 31 -123 31q-37 0 -37 -43v-59h-330v174q0 36 9.5 67.5t32.5 63.5t72 51t118 19h8q20 0 37.5 -1t37.5 -4.5t32.5 -5.5t38.5 -9t37.5 -10.5t46.5 -14
t51 -15.5q95 -31 120 -31q17 0 26 11.5t9 29.5v60h330v-162q0 -39 -8 -71t-30 -66.5t-70.5 -54t-120.5 -19.5z" />
    <glyph glyph-name="Ograve" unicode="&#xd2;" horiz-adv-x="2408" 
d="M1159 1552h92q160 0 297 -16.5t240 -45t187.5 -70.5t143 -88t103 -102t70.5 -109t42 -113t21.5 -109t5.5 -102v-62q0 -69 -9.5 -132.5t-39 -143t-78 -145.5t-134 -131.5t-198.5 -110.5t-280 -73t-371 -28h-92q-204 0 -371.5 28t-281 73t-199 110.5t-134 131.5t-78 145.5
t-39 143t-9.5 132.5v62q0 69 9.5 132.5t39 142t78 143.5t134 129.5t199 108.5t281 71.5t371.5 27.5zM1759 754v28q0 53 -14 100.5t-52 96.5t-98 84t-160.5 57.5t-230.5 22.5q-132 0 -233.5 -22.5t-161 -57.5t-97 -84.5t-50.5 -96.5t-13 -100v-24q0 -52 14 -100.5t52 -100
t98 -89t160.5 -61.5t230.5 -24t230.5 23t160.5 59.5t98 87.5t52 99.5t14 101.5zM1307 1933l161 -317h-526l-207 317h572z" />
    <glyph glyph-name="Oacute" unicode="&#xd3;" horiz-adv-x="2408" 
d="M1159 1552h92q160 0 297 -16.5t240 -45t187.5 -70.5t143 -88t103 -102t70.5 -109t42 -113t21.5 -109t5.5 -102v-62q0 -69 -9.5 -132.5t-39 -143t-78 -145.5t-134 -131.5t-198.5 -110.5t-280 -73t-371 -28h-92q-204 0 -371.5 28t-281 73t-199 110.5t-134 131.5t-78 145.5
t-39 143t-9.5 132.5v62q0 69 9.5 132.5t39 142t78 143.5t134 129.5t199 108.5t281 71.5t371.5 27.5zM1759 754v28q0 53 -14 100.5t-52 96.5t-98 84t-160.5 57.5t-230.5 22.5q-132 0 -233.5 -22.5t-161 -57.5t-97 -84.5t-50.5 -96.5t-13 -100v-24q0 -52 14 -100.5t52 -100
t98 -89t160.5 -61.5t230.5 -24t230.5 23t160.5 59.5t98 87.5t52 99.5t14 101.5zM946 1616l162 317h571l-206 -317h-527z" />
    <glyph glyph-name="Ocircumflex" unicode="&#xd4;" horiz-adv-x="2408" 
d="M1159 1552h92q160 0 297 -16.5t240 -45t187.5 -70.5t143 -88t103 -102t70.5 -109t42 -113t21.5 -109t5.5 -102v-62q0 -69 -9.5 -132.5t-39 -143t-78 -145.5t-134 -131.5t-198.5 -110.5t-280 -73t-371 -28h-92q-204 0 -371.5 28t-281 73t-199 110.5t-134 131.5t-78 145.5
t-39 143t-9.5 132.5v62q0 69 9.5 132.5t39 142t78 143.5t134 129.5t199 108.5t281 71.5t371.5 27.5zM1759 754v28q0 53 -14 100.5t-52 96.5t-98 84t-160.5 57.5t-230.5 22.5q-132 0 -233.5 -22.5t-161 -57.5t-97 -84.5t-50.5 -96.5t-13 -100v-24q0 -52 14 -100.5t52 -100
t98 -89t160.5 -61.5t230.5 -24t230.5 23t160.5 59.5t98 87.5t52 99.5t14 101.5zM1493 1933l336 -317h-500l-127 119l-125 -119h-493l331 317h578z" />
    <glyph glyph-name="Otilde" unicode="&#xd5;" horiz-adv-x="2408" 
d="M1159 1552h92q160 0 297 -16.5t240 -45t187.5 -70.5t143 -88t103 -102t70.5 -109t42 -113t21.5 -109t5.5 -102v-62q0 -69 -9.5 -132.5t-39 -143t-78 -145.5t-134 -131.5t-198.5 -110.5t-280 -73t-371 -28h-92q-204 0 -371.5 28t-281 73t-199 110.5t-134 131.5t-78 145.5
t-39 143t-9.5 132.5v62q0 69 9.5 132.5t39 142t78 143.5t134 129.5t199 108.5t281 71.5t371.5 27.5zM1759 754v28q0 53 -14 100.5t-52 96.5t-98 84t-160.5 57.5t-230.5 22.5q-132 0 -233.5 -22.5t-161 -57.5t-97 -84.5t-50.5 -96.5t-13 -100v-24q0 -52 14 -100.5t52 -100
t98 -89t160.5 -61.5t230.5 -24t230.5 23t160.5 59.5t98 87.5t52 99.5t14 101.5zM1475 1628h-11q-65 0 -117 12t-159 48q-82 30 -123 30q-37 0 -37 -43v-59h-330v174q0 36 9.5 67.5t32.5 63.5t72 51t118 19h8q20 0 37.5 -1t37.5 -4.5t32.5 -5.5t38.5 -9t37.5 -10.5t46.5 -14
t51 -15.5q92 -30 120 -30q17 0 26 11.5t9 29.5v59h330v-162q0 -39 -8 -71t-30 -66.5t-70.5 -54t-120.5 -19.5z" />
    <glyph glyph-name="Odieresis" unicode="&#xd6;" horiz-adv-x="2408" 
d="M1159 1552h92q160 0 297 -16.5t240 -45t187.5 -70.5t143 -88t103 -102t70.5 -109t42 -113t21.5 -109t5.5 -102v-62q0 -69 -9.5 -132.5t-39 -143t-78 -145.5t-134 -131.5t-198.5 -110.5t-280 -73t-371 -28h-92q-204 0 -371.5 28t-281 73t-199 110.5t-134 131.5t-78 145.5
t-39 143t-9.5 132.5v62q0 69 9.5 132.5t39 142t78 143.5t134 129.5t199 108.5t281 71.5t371.5 27.5zM1759 754v28q0 53 -14 100.5t-52 96.5t-98 84t-160.5 57.5t-230.5 22.5q-132 0 -233.5 -22.5t-161 -57.5t-97 -84.5t-50.5 -96.5t-13 -100v-24q0 -52 14 -100.5t52 -100
t98 -89t160.5 -61.5t230.5 -24t230.5 23t160.5 59.5t98 87.5t52 99.5t14 101.5zM1755 1933v-317h-502v317h502zM1155 1933v-317h-504v317h504z" />
    <glyph glyph-name="multiply" unicode="&#xd7;" horiz-adv-x="1128" 
d="M883 125l-320 285l-315 -285l-223 242l292 264l-290 258l217 246l317 -285l316 285l225 -242l-295 -264l295 -264z" />
    <glyph glyph-name="Oslash" unicode="&#xd8;" horiz-adv-x="2418" 
d="M1257 -27h-94q-374 0 -614 97l-90 -70h-471q19 16 90 70q31 23 99 76t97 75q-229 195 -229 512v62q0 70 9.5 134t39 142.5t78.5 143.5t135 129t200 108t282 71t374 27h94q354 0 603 -94l88 68h473l-283 -219q236 -198 236 -510v-62q0 -69 -9.5 -132.5t-40 -142
t-79.5 -144.5t-135.5 -131t-200 -110t-281 -72.5t-371.5 -27.5zM641 784v-26q0 -119 64 -205l745 584q-99 12 -242 12q-134 0 -237 -22t-164 -56.5t-99.5 -84t-52.5 -98t-14 -104.5zM1208 379q132 0 234 22.5t164.5 59t102 87t54.5 101t15 107.5v28q0 117 -60 199l-755 -590
q119 -14 245 -14z" />
    <glyph glyph-name="Ugrave" unicode="&#xd9;" horiz-adv-x="2260" 
d="M82 797v727h584v-682q0 -61 11 -114.5t43 -109.5t82 -95.5t135 -65t196 -25.5q109 0 193 25.5t134.5 65t82 95.5t43 109.5t11.5 114.5v682h582v-727q0 -70 -10 -139t-38.5 -152.5t-74 -156.5t-124 -143t-180 -120t-250 -80.5t-326.5 -30.5h-82q-184 0 -335 30.5t-254 80
t-181.5 120.5t-123 143t-72.5 156.5t-37 152.5t-9 139zM1255 1931l162 -317h-526l-207 317h571z" />
    <glyph glyph-name="Uacute" unicode="&#xda;" horiz-adv-x="2260" 
d="M82 797v727h584v-682q0 -61 11 -114.5t43 -109.5t82 -95.5t135 -65t196 -25.5q109 0 193 25.5t134.5 65t82 95.5t43 109.5t11.5 114.5v682h582v-727q0 -70 -10 -139t-38.5 -152.5t-74 -156.5t-124 -143t-180 -120t-250 -80.5t-326.5 -30.5h-82q-184 0 -335 30.5t-254 80
t-181.5 120.5t-123 143t-72.5 156.5t-37 152.5t-9 139zM844 1616l162 317h571l-207 -317h-526z" />
    <glyph glyph-name="Ucircumflex" unicode="&#xdb;" horiz-adv-x="2260" 
d="M82 797v727h584v-682q0 -61 11 -114.5t43 -109.5t82 -95.5t135 -65t196 -25.5q109 0 193 25.5t134.5 65t82 95.5t43 109.5t11.5 114.5v682h582v-727q0 -70 -10 -139t-38.5 -152.5t-74 -156.5t-124 -143t-180 -120t-250 -80.5t-326.5 -30.5h-82q-184 0 -335 30.5t-254 80
t-181.5 120.5t-123 143t-72.5 156.5t-37 152.5t-9 139zM1415 1933l336 -317h-500l-127 119l-125 -119h-493l332 317h577z" />
    <glyph glyph-name="Udieresis" unicode="&#xdc;" horiz-adv-x="2260" 
d="M82 797v727h584v-682q0 -61 11 -114.5t43 -109.5t82 -95.5t135 -65t196 -25.5q109 0 193 25.5t134.5 65t82 95.5t43 109.5t11.5 114.5v682h582v-727q0 -70 -10 -139t-38.5 -152.5t-74 -156.5t-124 -143t-180 -120t-250 -80.5t-326.5 -30.5h-82q-184 0 -335 30.5t-254 80
t-181.5 120.5t-123 143t-72.5 156.5t-37 152.5t-9 139zM1681 1933v-317h-501v317h501zM1081 1933v-317h-503v317h503z" />
    <glyph glyph-name="Yacute" unicode="&#xdd;" horiz-adv-x="2148" 
d="M793 0v573l-834 951h696l445 -527l452 527h637l-815 -955v-569h-581zM825 1616l162 317h572l-207 -317h-527z" />
    <glyph glyph-name="Thorn" unicode="&#xde;" horiz-adv-x="2119" 
d="M1354 246h-674v-246h-582v1524h582v-230h674q166 0 293.5 -25t210 -69t134.5 -108.5t73.5 -138.5t21.5 -165v-30q0 -512 -733 -512zM680 915v-286h612q95 0 143 37t48 104v6q0 139 -191 139h-612z" />
    <glyph glyph-name="germandbls" unicode="&#xdf;" horiz-adv-x="1875" 
d="M1456 891q83 -15 151 -45t122 -77.5t84 -118t30 -158.5v-25q0 -73 -16.5 -136t-60.5 -126t-114.5 -106.5t-187.5 -71t-270 -27.5h-442v346h266q72 0 121 11t73.5 31.5t34.5 44t10 54.5v5q0 31 -10 54t-34.5 43.5t-73 31t-119.5 10.5h-268v348h245q193 0 193 111v2
q0 25 -7 42t-30.5 36.5t-79 29.5t-141.5 10h-43q-144 0 -197 -39t-53 -124v-1047h-557v1079q0 48 6 88.5t25.5 87.5t51.5 84t88 73t131 59.5t184.5 38t244.5 14.5h160q145 0 261 -12t193.5 -31t134.5 -48.5t88 -58.5t48.5 -67t22.5 -68t5 -68v-14q0 -104 -79 -176t-191 -90z
" />
    <glyph glyph-name="agrave" unicode="&#xe0;" horiz-adv-x="1732" 
d="M1067 473v47l-369 -65q-73 -12 -104 -33t-31 -62v-2q0 -46 40.5 -79t133.5 -33q147 0 238.5 68t91.5 159zM1077 147q-167 -167 -516 -167h-22q-133 0 -234.5 29.5t-160 80.5t-87 112.5t-28.5 131.5v24q0 143 103.5 221.5t342.5 98.5l531 47q34 4 47.5 16.5t13.5 36.5
q0 18 -7.5 31t-30.5 26t-73.5 20t-128.5 7h-8q-67 0 -115.5 -9t-72 -19.5t-38.5 -30t-17 -27.5t-5 -26h-516v12q0 37 4 67t20.5 70t45 70t81.5 62t126 52.5t183 33.5t247 13h115q143 0 257 -12t190 -31.5t131 -49.5t84.5 -58.5t46.5 -67t21.5 -68t4.5 -67.5v-407
q0 -25 9.5 -36t37.5 -11h59v-322h-463q-73 0 -119.5 38t-58.5 109zM1085 1194h-505l-228 330h553z" />
    <glyph glyph-name="aacute" unicode="&#xe1;" horiz-adv-x="1732" 
d="M1067 473v47l-369 -65q-73 -12 -104 -33t-31 -62v-2q0 -46 40.5 -79t133.5 -33q147 0 238.5 68t91.5 159zM1077 147q-167 -167 -516 -167h-22q-133 0 -234.5 29.5t-160 80.5t-87 112.5t-28.5 131.5v24q0 143 103.5 221.5t342.5 98.5l531 47q34 4 47.5 16.5t13.5 36.5
q0 18 -7.5 31t-30.5 26t-73.5 20t-128.5 7h-8q-67 0 -115.5 -9t-72 -19.5t-38.5 -30t-17 -27.5t-5 -26h-516v12q0 37 4 67t20.5 70t45 70t81.5 62t126 52.5t183 33.5t247 13h115q143 0 257 -12t190 -31.5t131 -49.5t84.5 -58.5t46.5 -67t21.5 -68t4.5 -67.5v-407
q0 -25 9.5 -36t37.5 -11h59v-322h-463q-73 0 -119.5 38t-58.5 109zM573 1194l183 330h549l-228 -330h-504z" />
    <glyph glyph-name="acircumflex" unicode="&#xe2;" horiz-adv-x="1732" 
d="M1067 473v47l-369 -65q-73 -12 -104 -33t-31 -62v-2q0 -46 40.5 -79t133.5 -33q147 0 238.5 68t91.5 159zM1077 147q-167 -167 -516 -167h-22q-133 0 -234.5 29.5t-160 80.5t-87 112.5t-28.5 131.5v24q0 143 103.5 221.5t342.5 98.5l531 47q34 4 47.5 16.5t13.5 36.5
q0 18 -7.5 31t-30.5 26t-73.5 20t-128.5 7h-8q-67 0 -115.5 -9t-72 -19.5t-38.5 -30t-17 -27.5t-5 -26h-516v12q0 37 4 67t20.5 70t45 70t81.5 62t126 52.5t183 33.5t247 13h115q143 0 257 -12t190 -31.5t131 -49.5t84.5 -58.5t46.5 -67t21.5 -68t4.5 -67.5v-407
q0 -25 9.5 -36t37.5 -11h59v-322h-463q-73 0 -119.5 38t-58.5 109zM1110 1524l313 -332h-485l-119 135l-119 -135h-477l312 332h575z" />
    <glyph glyph-name="atilde" unicode="&#xe3;" horiz-adv-x="1732" 
d="M1067 473v47l-369 -65q-73 -12 -104 -33t-31 -62v-2q0 -46 40.5 -79t133.5 -33q147 0 238.5 68t91.5 159zM1077 147q-167 -167 -516 -167h-22q-133 0 -234.5 29.5t-160 80.5t-87 112.5t-28.5 131.5v24q0 143 103.5 221.5t342.5 98.5l531 47q34 4 47.5 16.5t13.5 36.5
q0 18 -7.5 31t-30.5 26t-73.5 20t-128.5 7h-8q-67 0 -115.5 -9t-72 -19.5t-38.5 -30t-17 -27.5t-5 -26h-516v12q0 37 4 67t20.5 70t45 70t81.5 62t126 52.5t183 33.5t247 13h115q143 0 257 -12t190 -31.5t131 -49.5t84.5 -58.5t46.5 -67t21.5 -68t4.5 -67.5v-407
q0 -25 9.5 -36t37.5 -11h59v-322h-463q-73 0 -119.5 38t-58.5 109zM1083 1202h-8q-58 0 -110 12.5t-160 47.5q-92 28 -115 28q-33 0 -33 -43v-55h-325v166q0 36 9 67t31.5 62.5t70 50t114.5 18.5h8q64 0 113.5 -11t159.5 -46l35 -12.5t30.5 -10.5t22.5 -5.5t24 -2.5
q31 0 31 41v60h328v-156q0 -211 -226 -211z" />
    <glyph glyph-name="adieresis" unicode="&#xe4;" horiz-adv-x="1732" 
d="M1067 473v47l-369 -65q-73 -12 -104 -33t-31 -62v-2q0 -46 40.5 -79t133.5 -33q147 0 238.5 68t91.5 159zM1077 147q-167 -167 -516 -167h-22q-133 0 -234.5 29.5t-160 80.5t-87 112.5t-28.5 131.5v24q0 143 103.5 221.5t342.5 98.5l531 47q34 4 47.5 16.5t13.5 36.5
q0 18 -7.5 31t-30.5 26t-73.5 20t-128.5 7h-8q-67 0 -115.5 -9t-72 -19.5t-38.5 -30t-17 -27.5t-5 -26h-516v12q0 37 4 67t20.5 70t45 70t81.5 62t126 52.5t183 33.5t247 13h115q143 0 257 -12t190 -31.5t131 -49.5t84.5 -58.5t46.5 -67t21.5 -68t4.5 -67.5v-407
q0 -25 9.5 -36t37.5 -11h59v-322h-463q-73 0 -119.5 38t-58.5 109zM1356 1524v-330h-488v330h488zM774 1524v-330h-485v330h485z" />
    <glyph glyph-name="aring" unicode="&#xe5;" horiz-adv-x="1732" 
d="M1067 473v47l-369 -65q-73 -12 -104 -33t-31 -62v-2q0 -46 40.5 -79t133.5 -33q147 0 238.5 68t91.5 159zM1077 147q-167 -167 -516 -167h-22q-133 0 -234.5 29.5t-160 80.5t-87 112.5t-28.5 131.5v24q0 143 103.5 221.5t342.5 98.5l531 47q34 4 47.5 16.5t13.5 36.5
q0 18 -7.5 31t-30.5 26t-73.5 20t-128.5 7h-8q-67 0 -115.5 -9t-72 -19.5t-38.5 -30t-17 -27.5t-5 -26h-516v12q0 37 4 67t20.5 70t45 70t81.5 62t126 52.5t183 33.5t247 13h115q143 0 257 -12t190 -31.5t131 -49.5t84.5 -58.5t46.5 -67t21.5 -68t4.5 -67.5v-407
q0 -25 9.5 -36t37.5 -11h59v-322h-463q-73 0 -119.5 38t-58.5 109zM416 1425q0 52 20 93.5t65 76t126 53.5t194 19q400 0 400 -242q0 -243 -400 -243q-116 0 -197.5 18.5t-125.5 53.5t-63 76.5t-19 94.5zM668 1425q0 -43 38 -67.5t115 -24.5q75 0 112.5 24.5t37.5 67.5
q0 91 -150 91q-153 0 -153 -91z" />
    <glyph glyph-name="ae" unicode="&#xe6;" horiz-adv-x="2828" 
d="M1927 862h-4q-149 0 -222 -43t-93 -123h635q-18 82 -92.5 124t-223.5 42zM735 244q145 0 234.5 68.5t89.5 160.5v47l-365 -63q-70 -12 -101.5 -33.5t-31.5 -61.5v-2q0 -48 41.5 -82t132.5 -34zM2789 401v-4q0 -37 -6.5 -72t-28 -79.5t-56.5 -81.5t-97 -73.5t-143.5 -62
t-203 -41.5t-269.5 -16h-113q-498 0 -701 232q-200 -223 -577 -223h-23q-147 0 -256 29.5t-169 80.5t-88.5 112t-28.5 132v24q0 144 104 223t340 99l539 47q28 4 37.5 16t9.5 37v2q0 22 -13.5 37t-69 28t-155.5 13h-10q-65 0 -112.5 -8.5t-71.5 -20t-37.5 -28t-16 -28
t-2.5 -25.5h-514v12q0 28 2 49.5t9.5 52.5t21 55.5t39 53t61 50t89 42.5t120 34.5t158 22t199.5 8.5h112q362 0 512 -102q161 102 486 102h116q118 0 218 -12t176 -33t137.5 -52t104.5 -65.5t75 -78.5t50.5 -85.5t30 -90.5t15.5 -91t4 -90v-61h-1191q13 -93 93 -148t238 -55
h2q76 0 135 12t90.5 28t52 36.5t26.5 34t6 22.5h544z" />
    <glyph glyph-name="ccedilla" unicode="&#xe7;" horiz-adv-x="1816" 
d="M973 -31h-123q-147 0 -267.5 20t-203 52.5t-145 80t-99 96.5t-59 108t-30 109t-7.5 104v36q0 54 7.5 103t29.5 106.5t58.5 105.5t99 94.5t145 78t202.5 51t267 19.5h127q152 0 276 -19.5t206.5 -51t145 -76t96.5 -88t54.5 -94t26.5 -88t6 -75.5v-6h-569q-2 14 -7 28.5
t-16.5 38.5t-34 44t-54 38.5t-82 29.5t-112.5 11h-8q-85 0 -146.5 -22t-93 -60t-45.5 -80.5t-14 -93.5v-10q0 -54 14.5 -100.5t47 -88t93 -65.5t144.5 -24h8q74 0 131 17t87.5 40t51.5 53.5t27 50t9 37.5h569v-4q0 -39 -5 -75.5t-24.5 -89.5t-52.5 -97.5t-95 -91t-144.5 -79
t-209.5 -53t-282 -20.5zM532 -530v188h224q73 0 73 45t-73 45h-146v252h283v-100q97 0 167 -10t113 -27t69 -44t35 -57t9 -71v-6q0 -38 -9.5 -67.5t-36 -58t-69.5 -47.5t-114 -30.5t-166 -11.5h-359z" />
    <glyph glyph-name="egrave" unicode="&#xe8;" horiz-adv-x="1818" 
d="M909 862q-149 0 -222 -43t-95 -123h635q-18 82 -92 124t-226 42zM1780 401v-4q0 -37 -7 -72.5t-29 -79.5t-57.5 -81.5t-98 -74.5t-145.5 -62.5t-205 -41.5t-271 -16h-109q-141 0 -258.5 18t-200.5 49t-147.5 75.5t-104 93.5t-64.5 107t-34.5 112t-9.5 113v41q0 58 9 111
t33 110t63 104.5t102 91t146 73.5t200.5 47.5t259.5 17.5h113q150 0 271.5 -20t205.5 -52.5t147 -81t99.5 -99.5t58.5 -114t29.5 -117t7.5 -117v-61h-1198q13 -93 94 -148t240 -55h2q75 0 133 11.5t89 27.5t52 36.5t27 33.5t8 24h549zM1159 1194h-506l-227 330h553z" />
    <glyph glyph-name="eacute" unicode="&#xe9;" horiz-adv-x="1818" 
d="M909 862q-149 0 -222 -43t-95 -123h635q-18 82 -92 124t-226 42zM1780 401v-4q0 -37 -7 -72.5t-29 -79.5t-57.5 -81.5t-98 -74.5t-145.5 -62.5t-205 -41.5t-271 -16h-109q-141 0 -258.5 18t-200.5 49t-147.5 75.5t-104 93.5t-64.5 107t-34.5 112t-9.5 113v41q0 58 9 111
t33 110t63 104.5t102 91t146 73.5t200.5 47.5t259.5 17.5h113q150 0 271.5 -20t205.5 -52.5t147 -81t99.5 -99.5t58.5 -114t29.5 -117t7.5 -117v-61h-1198q13 -93 94 -148t240 -55h2q75 0 133 11.5t89 27.5t52 36.5t27 33.5t8 24h549zM664 1194l182 330h549l-228 -330h-503z
" />
    <glyph glyph-name="ecircumflex" unicode="&#xea;" horiz-adv-x="1818" 
d="M909 862q-149 0 -222 -43t-95 -123h635q-18 82 -92 124t-226 42zM1780 401v-4q0 -37 -7 -72.5t-29 -79.5t-57.5 -81.5t-98 -74.5t-145.5 -62.5t-205 -41.5t-271 -16h-109q-141 0 -258.5 18t-200.5 49t-147.5 75.5t-104 93.5t-64.5 107t-34.5 112t-9.5 113v41q0 58 9 111
t33 110t63 104.5t102 91t146 73.5t200.5 47.5t259.5 17.5h113q150 0 271.5 -20t205.5 -52.5t147 -81t99.5 -99.5t58.5 -114t29.5 -117t7.5 -117v-61h-1198q13 -93 94 -148t240 -55h2q75 0 133 11.5t89 27.5t52 36.5t27 33.5t8 24h549zM1200 1524l313 -332h-485l-119 135
l-118 -135h-478l312 332h575z" />
    <glyph glyph-name="edieresis" unicode="&#xeb;" horiz-adv-x="1818" 
d="M909 862q-149 0 -222 -43t-95 -123h635q-18 82 -92 124t-226 42zM1780 401v-4q0 -37 -7 -72.5t-29 -79.5t-57.5 -81.5t-98 -74.5t-145.5 -62.5t-205 -41.5t-271 -16h-109q-141 0 -258.5 18t-200.5 49t-147.5 75.5t-104 93.5t-64.5 107t-34.5 112t-9.5 113v41q0 58 9 111
t33 110t63 104.5t102 91t146 73.5t200.5 47.5t259.5 17.5h113q150 0 271.5 -20t205.5 -52.5t147 -81t99.5 -99.5t58.5 -114t29.5 -117t7.5 -117v-61h-1198q13 -93 94 -148t240 -55h2q75 0 133 11.5t89 27.5t52 36.5t27 33.5t8 24h549zM1446 1524v-330h-488v330h488z
M864 1524v-330h-485v330h485z" />
    <glyph glyph-name="igrave" unicode="&#xec;" horiz-adv-x="720" 
d="M639 1102v-1102h-557v1102h557zM614 1194h-505l-228 330h553z" />
    <glyph glyph-name="iacute" unicode="&#xed;" horiz-adv-x="720" 
d="M639 1102v-1102h-557v1102h557zM111 1194l182 330h549l-228 -330h-503z" />
    <glyph glyph-name="icircumflex" unicode="&#xee;" horiz-adv-x="720" 
d="M616 1524l224 -330h-394l-90 135l-88 -135h-389l223 330h514zM639 1102v-1102h-557v1102h557z" />
    <glyph glyph-name="idieresis" unicode="&#xef;" horiz-adv-x="720" 
d="M784 1524v-330h-387v330h387zM322 1524v-330h-385v330h385zM639 1102v-1102h-557v1102h557z" />
    <glyph glyph-name="eth" unicode="&#xf0;" horiz-adv-x="1898" 
d="M997 -31h-112q-140 0 -258 17.5t-204 47.5t-153 72.5t-110 90t-70.5 104t-39 110t-11.5 111.5v47q0 84 18.5 158.5t65 144t118 119t184 79.5t255.5 30h29q250 0 452 -99l-270 195l-565 -61v186l340 37l-228 166h670l143 -103l437 47v-186l-209 -22q205 -149 293 -300.5
t88 -341.5v-40q0 -46 -3 -85.5t-14 -89.5t-29.5 -91.5t-51.5 -87.5t-77.5 -82t-110.5 -69.5t-147.5 -55.5t-191 -35t-238.5 -13zM1294 551v8q0 49 -16.5 92t-53.5 82t-107 61.5t-167 22.5h-4q-97 0 -167.5 -22.5t-107 -61.5t-53 -82t-16.5 -92v-8q0 -50 16.5 -94.5t53 -85
t107 -64.5t167.5 -24h2q98 0 169 24t107.5 64.5t53 85t16.5 94.5z" />
    <glyph glyph-name="ntilde" unicode="&#xf1;" horiz-adv-x="1837" 
d="M82 0v1102h553v-195q23 21 31.5 29t44.5 36t63.5 43.5t78 39.5t98.5 37t115 23.5t138 10.5h13q118 0 213.5 -27t155 -69.5t99.5 -99t56 -111t16 -110.5v-709h-559v526q0 117 -65 185.5t-201 68.5q-138 0 -215.5 -74t-77.5 -194v-512h-557zM1182 1198h-8q-58 0 -112 12
t-159 47q-95 29 -115 29q-32 0 -32 -43v-55h-326v166q0 36 9 67t31.5 62.5t70 50t114.5 18.5h9q64 0 113 -11t159 -46q14 -4 35.5 -12t31 -11t22.5 -5.5t24 -2.5q30 0 30 41v60h328v-156q0 -211 -225 -211z" />
    <glyph glyph-name="ograve" unicode="&#xf2;" horiz-adv-x="1898" 
d="M1026 -31h-152q-146 0 -267.5 19.5t-206.5 52t-150.5 79t-104.5 96t-63.5 108t-33.5 110.5t-9 107v32q0 54 8.5 104.5t33 108t63.5 106t104 94t149.5 77.5t206 51t268.5 19h156q832 0 832 -558v-36q0 -57 -7 -106.5t-29 -109t-58.5 -108t-100.5 -96t-149.5 -79.5
t-210.5 -51.5t-279 -19.5zM952 821h-2q-79 0 -141 -15.5t-99.5 -40.5t-62 -59.5t-34 -69t-9.5 -73.5v-8q0 -39 9 -75t33.5 -73t62 -63.5t99.5 -43.5t142 -17h2q78 0 140 17.5t99 45t61.5 64.5t34 72.5t9.5 72.5v8q0 49 -16.5 92t-53 82t-107 61.5t-167.5 22.5zM1202 1194
h-506l-227 330h553z" />
    <glyph glyph-name="oacute" unicode="&#xf3;" horiz-adv-x="1898" 
d="M1026 -31h-152q-146 0 -267.5 19.5t-206.5 52t-150.5 79t-104.5 96t-63.5 108t-33.5 110.5t-9 107v32q0 54 8.5 104.5t33 108t63.5 106t104 94t149.5 77.5t206 51t268.5 19h156q832 0 832 -558v-36q0 -57 -7 -106.5t-29 -109t-58.5 -108t-100.5 -96t-149.5 -79.5
t-210.5 -51.5t-279 -19.5zM952 821h-2q-79 0 -141 -15.5t-99.5 -40.5t-62 -59.5t-34 -69t-9.5 -73.5v-8q0 -39 9 -75t33.5 -73t62 -63.5t99.5 -43.5t142 -17h2q78 0 140 17.5t99 45t61.5 64.5t34 72.5t9.5 72.5v8q0 49 -16.5 92t-53 82t-107 61.5t-167.5 22.5zM696 1194
l183 330h548l-227 -330h-504z" />
    <glyph glyph-name="ocircumflex" unicode="&#xf4;" horiz-adv-x="1898" 
d="M1026 -31h-152q-146 0 -267.5 19.5t-206.5 52t-150.5 79t-104.5 96t-63.5 108t-33.5 110.5t-9 107v32q0 54 8.5 104.5t33 108t63.5 106t104 94t149.5 77.5t206 51t268.5 19h156q832 0 832 -558v-36q0 -57 -7 -106.5t-29 -109t-58.5 -108t-100.5 -96t-149.5 -79.5
t-210.5 -51.5t-279 -19.5zM952 821h-2q-79 0 -141 -15.5t-99.5 -40.5t-62 -59.5t-34 -69t-9.5 -73.5v-8q0 -39 9 -75t33.5 -73t62 -63.5t99.5 -43.5t142 -17h2q78 0 140 17.5t99 45t61.5 64.5t34 72.5t9.5 72.5v8q0 49 -16.5 92t-53 82t-107 61.5t-167.5 22.5zM1237 1524
l313 -332h-485l-119 135l-119 -135h-477l312 332h575z" />
    <glyph glyph-name="otilde" unicode="&#xf5;" horiz-adv-x="1898" 
d="M1026 -31h-152q-146 0 -267.5 19.5t-206.5 52t-150.5 79t-104.5 96t-63.5 108t-33.5 110.5t-9 107v32q0 54 8.5 104.5t33 108t63.5 106t104 94t149.5 77.5t206 51t268.5 19h156q832 0 832 -558v-36q0 -57 -7 -106.5t-29 -109t-58.5 -108t-100.5 -96t-149.5 -79.5
t-210.5 -51.5t-279 -19.5zM952 821h-2q-79 0 -141 -15.5t-99.5 -40.5t-62 -59.5t-34 -69t-9.5 -73.5v-8q0 -39 9 -75t33.5 -73t62 -63.5t99.5 -43.5t142 -17h2q78 0 140 17.5t99 45t61.5 64.5t34 72.5t9.5 72.5v8q0 49 -16.5 92t-53 82t-107 61.5t-167.5 22.5zM1208 1202h-8
q-58 0 -110 12.5t-160 47.5q-92 28 -115 28q-33 0 -33 -43v-55h-325v166q0 36 9 67t31.5 62.5t69.5 50t115 18.5h8q64 0 113.5 -11t159.5 -46l35 -12.5t30.5 -10.5t22.5 -5.5t24 -2.5q31 0 31 41v60h328v-156q0 -211 -226 -211z" />
    <glyph glyph-name="odieresis" unicode="&#xf6;" horiz-adv-x="1898" 
d="M1026 -31h-152q-146 0 -267.5 19.5t-206.5 52t-150.5 79t-104.5 96t-63.5 108t-33.5 110.5t-9 107v32q0 54 8.5 104.5t33 108t63.5 106t104 94t149.5 77.5t206 51t268.5 19h156q832 0 832 -558v-36q0 -57 -7 -106.5t-29 -109t-58.5 -108t-100.5 -96t-149.5 -79.5
t-210.5 -51.5t-279 -19.5zM952 821h-2q-79 0 -141 -15.5t-99.5 -40.5t-62 -59.5t-34 -69t-9.5 -73.5v-8q0 -39 9 -75t33.5 -73t62 -63.5t99.5 -43.5t142 -17h2q78 0 140 17.5t99 45t61.5 64.5t34 72.5t9.5 72.5v8q0 49 -16.5 92t-53 82t-107 61.5t-167.5 22.5zM1483 1524
v-330h-488v330h488zM901 1524v-330h-485v330h485z" />
    <glyph glyph-name="divide" unicode="&#xf7;" horiz-adv-x="1257" 
d="M834 1212v-327h-410v327h410zM61 786h1135v-309h-1135v309zM834 375v-328h-410v328h410z" />
    <glyph glyph-name="oslash" unicode="&#xf8;" horiz-adv-x="1898" 
d="M1022 -31h-152q-268 0 -460 80l-76 -49h-363l242 168q-174 133 -174 373v32q0 54 9 104.5t34 108t64 106t104.5 94t150.5 77.5t207 51t269 19h153q261 0 457 -78l69 47h369l-235 -162q170 -141 170 -365v-36q0 -56 -7.5 -106t-30 -109.5t-59.5 -108t-101.5 -96
t-150 -79.5t-211 -51.5t-278.5 -19.5zM592 563v-8q0 -63 20 -113l521 361q-81 24 -181 24h-4q-83 0 -147 -16t-102.5 -41.5t-63.5 -61t-34 -70.5t-9 -75zM950 279h2q83 0 147 17.5t103 45t64 65t34 73.5t9 75v8q0 61 -17 101l-518 -361q70 -24 176 -24z" />
    <glyph glyph-name="ugrave" unicode="&#xf9;" horiz-adv-x="1816" 
d="M1735 1102v-1102h-553v197q-222 -222 -559 -222h-15q-118 0 -212 28t-151.5 72t-96 102.5t-53.5 115t-15 113.5v696h559v-527q0 -114 61 -183.5t193 -69.5q135 0 211 75.5t76 192.5v512h555zM1167 1194h-505l-228 330h553z" />
    <glyph glyph-name="uacute" unicode="&#xfa;" horiz-adv-x="1816" 
d="M1735 1102v-1102h-553v197q-222 -222 -559 -222h-15q-118 0 -212 28t-151.5 72t-96 102.5t-53.5 115t-15 113.5v696h559v-527q0 -114 61 -183.5t193 -69.5q135 0 211 75.5t76 192.5v512h555zM645 1194l182 330h549l-227 -330h-504z" />
    <glyph glyph-name="ucircumflex" unicode="&#xfb;" horiz-adv-x="1816" 
d="M1735 1102v-1102h-553v197q-222 -222 -559 -222h-15q-118 0 -212 28t-151.5 72t-96 102.5t-53.5 115t-15 113.5v696h559v-527q0 -114 61 -183.5t193 -69.5q135 0 211 75.5t76 192.5v512h555zM1194 1524l313 -332h-485l-119 135l-119 -135h-477l311 332h576z" />
    <glyph glyph-name="udieresis" unicode="&#xfc;" horiz-adv-x="1816" 
d="M1735 1102v-1102h-553v197q-222 -222 -559 -222h-15q-118 0 -212 28t-151.5 72t-96 102.5t-53.5 115t-15 113.5v696h559v-527q0 -114 61 -183.5t193 -69.5q135 0 211 75.5t76 192.5v512h555zM1440 1524v-330h-488v330h488zM858 1524v-330h-485v330h485z" />
    <glyph glyph-name="yacute" unicode="&#xfd;" horiz-adv-x="1693" 
d="M244 -385v340h250q51 0 51 35v2q0 24 -47 110l-521 1000h594l308 -709l284 709h553l-530 -1149q-81 -177 -179.5 -257.5t-244.5 -80.5h-518zM598 1194l182 330h549l-227 -330h-504z" />
    <glyph glyph-name="thorn" unicode="&#xfe;" horiz-adv-x="1910" 
d="M639 557v-8q0 -48 20.5 -93t60 -83.5t107.5 -62t154 -23.5h10q89 0 153.5 23.5t98.5 63.5t49 83t15 92v8q0 40 -9 76t-31.5 70.5t-57 59t-90.5 39.5t-128 15h-10q-88 0 -156 -22t-107.5 -60t-59 -83t-19.5 -95zM82 1524h557v-576q26 23 59.5 44.5t100.5 55t165.5 54
t211.5 20.5h43q123 0 223.5 -20.5t171 -58.5t121.5 -87.5t80.5 -111.5t43 -125.5t13.5 -134.5v-43q0 -87 -20 -165t-68.5 -151.5t-123 -127t-191 -85.5t-263.5 -32h-39q-109 0 -207 18.5t-162.5 46t-102.5 50t-56 40.5v-520h-557v1909z" />
    <glyph glyph-name="ydieresis" unicode="&#xff;" horiz-adv-x="1693" 
d="M244 -385v340h250q51 0 51 35v2q0 24 -47 110l-521 1000h594l308 -709l284 709h553l-530 -1149q-81 -177 -179.5 -257.5t-244.5 -80.5h-518zM1403 1524v-330h-488v330h488zM821 1524v-330h-485v330h485z" />
    <glyph glyph-name="Amacron" unicode="&#x100;" horiz-adv-x="2267" 
d="M1358 627l-256 524l-250 -524h506zM1663 0l-119 246h-870l-117 -246h-590l754 1524h782l797 -1524h-637zM631 1632v271h960v-271h-960z" />
    <glyph glyph-name="amacron" unicode="&#x101;" horiz-adv-x="1732" 
d="M1067 473v47l-369 -65q-73 -12 -104 -33t-31 -62v-2q0 -46 40.5 -79t133.5 -33q147 0 238.5 68t91.5 159zM1077 147q-167 -167 -516 -167h-22q-133 0 -234.5 29.5t-160 80.5t-87 112.5t-28.5 131.5v24q0 143 103.5 221.5t342.5 98.5l531 47q34 4 47.5 16.5t13.5 36.5
q0 18 -7.5 31t-30.5 26t-73.5 20t-128.5 7h-8q-67 0 -115.5 -9t-72 -19.5t-38.5 -30t-17 -27.5t-5 -26h-516v12q0 37 4 67t20.5 70t45 70t81.5 62t126 52.5t183 33.5t247 13h115q143 0 257 -12t190 -31.5t131 -49.5t84.5 -58.5t46.5 -67t21.5 -68t4.5 -67.5v-407
q0 -25 9.5 -36t37.5 -11h59v-322h-463q-73 0 -119.5 38t-58.5 109zM360 1217v264h926v-264h-926z" />
    <glyph glyph-name="Abreve" unicode="&#x102;" horiz-adv-x="2267" 
d="M1358 627l-256 524l-250 -524h506zM1663 0l-119 246h-870l-117 -246h-590l754 1524h782l797 -1524h-637zM1155 1602h-82q-114 0 -201 26.5t-135 64.5t-78.5 88t-39.5 90t-9 79v4h375q0 -12 5 -26.5t17.5 -32.5t41 -30t67.5 -12t66.5 12t39.5 30t16.5 32.5t4.5 26.5h369
v-4q0 -37 -12 -78.5t-44.5 -90.5t-81.5 -88t-132 -65t-187 -26z" />
    <glyph glyph-name="abreve" unicode="&#x103;" horiz-adv-x="1732" 
d="M868 1184h-82q-111 0 -196.5 25.5t-133 62t-77.5 85t-39.5 87.5t-9.5 76v4h370q0 -32 29 -64.5t100 -32.5q68 0 97.5 33t29.5 64h365v-4q0 -35 -12.5 -76t-45.5 -88t-82 -84.5t-130.5 -62.5t-182.5 -25zM1067 473v47l-369 -65q-73 -12 -104 -33t-31 -62v-2
q0 -46 40.5 -79t133.5 -33q147 0 238.5 68t91.5 159zM1077 147q-167 -167 -516 -167h-22q-133 0 -234.5 29.5t-160 80.5t-87 112.5t-28.5 131.5v24q0 143 103.5 221.5t342.5 98.5l531 47q34 4 47.5 16.5t13.5 36.5q0 18 -7.5 31t-30.5 26t-73.5 20t-128.5 7h-8
q-67 0 -115.5 -9t-72 -19.5t-38.5 -30t-17 -27.5t-5 -26h-516v12q0 37 4 67t20.5 70t45 70t81.5 62t126 52.5t183 33.5t247 13h115q143 0 257 -12t190 -31.5t131 -49.5t84.5 -58.5t46.5 -67t21.5 -68t4.5 -67.5v-407q0 -25 9.5 -36t37.5 -11h59v-322h-463q-73 0 -119.5 38
t-58.5 109z" />
    <glyph glyph-name="Aogonek" unicode="&#x104;" horiz-adv-x="2267" 
d="M1358 627l-256 524l-250 -524h506zM1663 0l-119 246h-870l-117 -246h-590l754 1524h782l797 -1524h-637zM1669 -238v7q0 80 95.5 131.5t299.5 99.5h234q-63 -41 -93 -69t-30 -56q0 -43 68 -43h55v-217h-328q-157 0 -229 36.5t-72 110.5z" />
    <glyph glyph-name="aogonek" unicode="&#x105;" horiz-adv-x="1732" 
d="M1067 473v47l-369 -65q-73 -12 -104 -33t-31 -62v-2q0 -46 40.5 -79t133.5 -33q147 0 238.5 68t91.5 159zM1077 147q-167 -167 -516 -167h-22q-133 0 -234.5 29.5t-160 80.5t-87 112.5t-28.5 131.5v24q0 143 103.5 221.5t342.5 98.5l531 47q34 4 47.5 16.5t13.5 36.5
q0 18 -7.5 31t-30.5 26t-73.5 20t-128.5 7h-8q-67 0 -115.5 -9t-72 -19.5t-38.5 -30t-17 -27.5t-5 -26h-516v12q0 37 4 67t20.5 70t45 70t81.5 62t126 52.5t183 33.5t247 13h115q143 0 257 -12t190 -31.5t131 -49.5t84.5 -58.5t46.5 -67t21.5 -68t4.5 -67.5v-407
q0 -25 9.5 -36t37.5 -11h59v-322h-463q-73 0 -119.5 38t-58.5 109zM1090 -238v7q0 80 95.5 131.5t299.5 99.5h233q-63 -41 -93 -69t-30 -56q0 -43 68 -43h55v-217h-327q-157 0 -229 36.5t-72 110.5z" />
    <glyph glyph-name="Cacute" unicode="&#x106;" horiz-adv-x="2306" 
d="M899 1622l162 311h571l-207 -311h-526zM1204 -29h-80q-194 0 -354 28t-269.5 73t-193 110t-132 132t-78.5 145.5t-40 143.5t-10 134v60q0 53 5.5 102.5t21 109.5t41 113t69 109t100.5 102t139 87.5t181.5 70t232.5 45t287 16.5h80q191 0 349.5 -24t266 -63t190 -93.5
t130 -110t77 -118t39 -111t9.5 -96.5v-27h-604q-5 17 -8.5 26.5t-19 37t-35.5 46.5t-59.5 44.5t-88.5 41t-124.5 27t-166.5 11.5q-88 0 -160.5 -11t-124.5 -30t-92 -46.5t-64.5 -57.5t-40.5 -67t-22 -71.5t-6 -73.5v-24q0 -44 10 -85.5t31.5 -85.5t61 -80.5t94 -65.5
t135.5 -45.5t180 -16.5q92 0 168.5 12.5t126 30.5t89 45t59.5 48.5t34.5 49.5t18 39t6.5 25h602v-33q0 -48 -10 -98t-40 -113.5t-78 -120t-130.5 -112t-190 -95.5t-265 -65t-347.5 -25z" />
    <glyph glyph-name="cacute" unicode="&#x107;" horiz-adv-x="1816" 
d="M659 1198l181 326h549l-226 -326h-504zM973 -31h-123q-147 0 -267.5 20t-203 52.5t-145 80t-99 96.5t-59 108t-30 109t-7.5 104v36q0 54 7.5 103t29.5 106.5t58.5 105.5t99 94.5t145 78t202.5 51t267 19.5h127q152 0 276 -19.5t206.5 -51t145 -76t96.5 -88t54.5 -94
t26.5 -88t6 -75.5v-6h-569q-2 14 -7 28.5t-16.5 38.5t-34 44t-54 38.5t-82 29.5t-112.5 11h-8q-85 0 -146.5 -22t-93 -60t-45.5 -80.5t-14 -93.5v-10q0 -54 14.5 -100.5t47 -88t93 -65.5t144.5 -24h8q74 0 131 17t87.5 40t51.5 53.5t27 50t9 37.5h569v-4q0 -39 -5 -75.5
t-24.5 -89.5t-52.5 -97.5t-95 -91t-144.5 -79t-209.5 -53t-282 -20.5z" />
    <glyph glyph-name="Ccircumflex" unicode="&#x108;" horiz-adv-x="2306" 
d="M1452 1933l330 -313h-498l-127 119l-127 -119h-493l325 313h590zM1204 -29h-80q-194 0 -354 28t-269.5 73t-193 110t-132 132t-78.5 145.5t-40 143.5t-10 134v60q0 53 5.5 102.5t21 109.5t41 113t69 109t100.5 102t139 87.5t181.5 70t232.5 45t287 16.5h80
q191 0 349.5 -24t266 -63t190 -93.5t130 -110t77 -118t39 -111t9.5 -96.5v-27h-604q-5 17 -8.5 26.5t-19 37t-35.5 46.5t-59.5 44.5t-88.5 41t-124.5 27t-166.5 11.5q-88 0 -160.5 -11t-124.5 -30t-92 -46.5t-64.5 -57.5t-40.5 -67t-22 -71.5t-6 -73.5v-24q0 -44 10 -85.5
t31.5 -85.5t61 -80.5t94 -65.5t135.5 -45.5t180 -16.5q92 0 168.5 12.5t126 30.5t89 45t59.5 48.5t34.5 49.5t18 39t6.5 25h602v-33q0 -48 -10 -98t-40 -113.5t-78 -120t-130.5 -112t-190 -95.5t-265 -65t-347.5 -25z" />
    <glyph glyph-name="ccircumflex" unicode="&#x109;" horiz-adv-x="1816" 
d="M1198 1524l313 -328h-485l-117 131l-118 -131h-480l312 328h575zM973 -31h-123q-147 0 -267.5 20t-203 52.5t-145 80t-99 96.5t-59 108t-30 109t-7.5 104v36q0 54 7.5 103t29.5 106.5t58.5 105.5t99 94.5t145 78t202.5 51t267 19.5h127q152 0 276 -19.5t206.5 -51
t145 -76t96.5 -88t54.5 -94t26.5 -88t6 -75.5v-6h-569q-2 14 -7 28.5t-16.5 38.5t-34 44t-54 38.5t-82 29.5t-112.5 11h-8q-85 0 -146.5 -22t-93 -60t-45.5 -80.5t-14 -93.5v-10q0 -54 14.5 -100.5t47 -88t93 -65.5t144.5 -24h8q74 0 131 17t87.5 40t51.5 53.5t27 50t9 37.5
h569v-4q0 -39 -5 -75.5t-24.5 -89.5t-52.5 -97.5t-95 -91t-144.5 -79t-209.5 -53t-282 -20.5z" />
    <glyph glyph-name="Cdotaccent" unicode="&#x10a;" horiz-adv-x="2306" 
d="M1444 1939v-317h-559v317h559zM1204 -29h-80q-194 0 -354 28t-269.5 73t-193 110t-132 132t-78.5 145.5t-40 143.5t-10 134v60q0 53 5.5 102.5t21 109.5t41 113t69 109t100.5 102t139 87.5t181.5 70t232.5 45t287 16.5h80q191 0 349.5 -24t266 -63t190 -93.5t130 -110
t77 -118t39 -111t9.5 -96.5v-27h-604q-5 17 -8.5 26.5t-19 37t-35.5 46.5t-59.5 44.5t-88.5 41t-124.5 27t-166.5 11.5q-88 0 -160.5 -11t-124.5 -30t-92 -46.5t-64.5 -57.5t-40.5 -67t-22 -71.5t-6 -73.5v-24q0 -44 10 -85.5t31.5 -85.5t61 -80.5t94 -65.5t135.5 -45.5
t180 -16.5q92 0 168.5 12.5t126 30.5t89 45t59.5 48.5t34.5 49.5t18 39t6.5 25h602v-33q0 -48 -10 -98t-40 -113.5t-78 -120t-130.5 -112t-190 -95.5t-265 -65t-347.5 -25z" />
    <glyph glyph-name="cdotaccent" unicode="&#x10b;" horiz-adv-x="1816" 
d="M1190 1524v-326h-557v326h557zM973 -31h-123q-147 0 -267.5 20t-203 52.5t-145 80t-99 96.5t-59 108t-30 109t-7.5 104v36q0 54 7.5 103t29.5 106.5t58.5 105.5t99 94.5t145 78t202.5 51t267 19.5h127q152 0 276 -19.5t206.5 -51t145 -76t96.5 -88t54.5 -94t26.5 -88
t6 -75.5v-6h-569q-2 14 -7 28.5t-16.5 38.5t-34 44t-54 38.5t-82 29.5t-112.5 11h-8q-85 0 -146.5 -22t-93 -60t-45.5 -80.5t-14 -93.5v-10q0 -54 14.5 -100.5t47 -88t93 -65.5t144.5 -24h8q74 0 131 17t87.5 40t51.5 53.5t27 50t9 37.5h569v-4q0 -39 -5 -75.5t-24.5 -89.5
t-52.5 -97.5t-95 -91t-144.5 -79t-209.5 -53t-282 -20.5z" />
    <glyph glyph-name="Ccaron" unicode="&#x10c;" horiz-adv-x="2306" 
d="M866 1622l-331 311h501l127 -118l125 118h496l-326 -311h-592zM1204 -29h-80q-194 0 -354 28t-269.5 73t-193 110t-132 132t-78.5 145.5t-40 143.5t-10 134v60q0 53 5.5 102.5t21 109.5t41 113t69 109t100.5 102t139 87.5t181.5 70t232.5 45t287 16.5h80q191 0 349.5 -24
t266 -63t190 -93.5t130 -110t77 -118t39 -111t9.5 -96.5v-27h-604q-5 17 -8.5 26.5t-19 37t-35.5 46.5t-59.5 44.5t-88.5 41t-124.5 27t-166.5 11.5q-88 0 -160.5 -11t-124.5 -30t-92 -46.5t-64.5 -57.5t-40.5 -67t-22 -71.5t-6 -73.5v-24q0 -44 10 -85.5t31.5 -85.5
t61 -80.5t94 -65.5t135.5 -45.5t180 -16.5q92 0 168.5 12.5t126 30.5t89 45t59.5 48.5t34.5 49.5t18 39t6.5 25h602v-33q0 -48 -10 -98t-40 -113.5t-78 -120t-130.5 -112t-190 -95.5t-265 -65t-347.5 -25z" />
    <glyph glyph-name="ccaron" unicode="&#x10d;" horiz-adv-x="1816" 
d="M618 1198l-309 326h488l118 -133l119 133h482l-308 -326h-590zM973 -31h-123q-147 0 -267.5 20t-203 52.5t-145 80t-99 96.5t-59 108t-30 109t-7.5 104v36q0 54 7.5 103t29.5 106.5t58.5 105.5t99 94.5t145 78t202.5 51t267 19.5h127q152 0 276 -19.5t206.5 -51t145 -76
t96.5 -88t54.5 -94t26.5 -88t6 -75.5v-6h-569q-2 14 -7 28.5t-16.5 38.5t-34 44t-54 38.5t-82 29.5t-112.5 11h-8q-85 0 -146.5 -22t-93 -60t-45.5 -80.5t-14 -93.5v-10q0 -54 14.5 -100.5t47 -88t93 -65.5t144.5 -24h8q74 0 131 17t87.5 40t51.5 53.5t27 50t9 37.5h569v-4
q0 -39 -5 -75.5t-24.5 -89.5t-52.5 -97.5t-95 -91t-144.5 -79t-209.5 -53t-282 -20.5z" />
    <glyph glyph-name="Dcaron" unicode="&#x10e;" horiz-adv-x="2320" 
d="M98 0v1524h1082q255 0 451 -41.5t316.5 -108.5t197 -163t105.5 -194.5t29 -213.5v-62q0 -79 -13 -150.5t-46.5 -147.5t-86.5 -139.5t-139 -120.5t-197.5 -97t-268.5 -63t-346 -23h-1084zM680 1124v-721h432q563 0 563 357v12q0 352 -563 352h-432zM705 1616l-338 317h499
l127 -118l125 118h494l-330 -317h-577z" />
    <glyph glyph-name="dcaron" unicode="&#x10f;" horiz-adv-x="1908" 
d="M1270 551v10q0 101 -91 177.5t-255 76.5h-11q-87 0 -150 -22t-96 -59.5t-48 -80t-15 -92.5v-10q0 -48 17 -92t52 -83t97.5 -62t144.5 -23h9q166 0 256 78.5t90 181.5zM1270 1524h557v-1524h-555v160q-15 -17 -36 -35t-68 -45.5t-102 -48t-141.5 -36t-183.5 -15.5h-34
q-140 0 -253.5 30t-190 81.5t-127.5 123t-74 152t-23 170.5v43q0 87 21.5 164.5t70.5 147.5t122.5 120.5t185.5 80t251 29.5h39q96 0 182.5 -14t139.5 -30t105.5 -43t69.5 -39.5t44 -32.5v561zM1882 1178l29 346h420l-58 -346h-391z" />
    <glyph glyph-name="Dcroat" unicode="&#x110;" horiz-adv-x="2351" 
d="M129 0v606h-125v322h125v596h1081q184 0 337.5 -21.5t265.5 -58.5t199 -91t142.5 -115.5t91 -135.5t50 -146.5t14.5 -152.5v-62q0 -79 -13 -150.5t-46.5 -147.5t-86.5 -139.5t-139.5 -120.5t-198 -97t-268.5 -63t-346 -23h-1083zM711 1124v-196h616v-322h-616v-203h432
q563 0 563 357v12q0 352 -563 352h-432z" />
    <glyph glyph-name="dcroat" unicode="&#x111;" horiz-adv-x="1908" 
d="M717 1198v225h1251v-225h-1251zM1270 551v10q0 101 -91 177.5t-255 76.5h-11q-87 0 -150 -22t-96 -59.5t-48 -80t-15 -92.5v-10q0 -48 17 -92t52 -83t97.5 -62t144.5 -23h9q166 0 256 78.5t90 181.5zM1270 1524h557v-1524h-555v160q-15 -17 -36 -35t-68 -45.5t-102 -48
t-141.5 -36t-183.5 -15.5h-34q-140 0 -253.5 30t-190 81.5t-127.5 123t-74 152t-23 170.5v43q0 87 21.5 164.5t70.5 147.5t122.5 120.5t185.5 80t251 29.5h39q96 0 182.5 -14t139.5 -30t105.5 -43t69.5 -39.5t44 -32.5v561z" />
    <glyph glyph-name="Emacron" unicode="&#x112;" horiz-adv-x="1869" 
d="M98 1524h1686v-373h-1112v-190h1089v-371h-1089v-209h1128v-381h-1702v1524zM479 1632v271h961v-271h-961z" />
    <glyph glyph-name="emacron" unicode="&#x113;" horiz-adv-x="1818" 
d="M909 862q-149 0 -222 -43t-95 -123h635q-18 82 -92 124t-226 42zM1780 401v-4q0 -37 -7 -72.5t-29 -79.5t-57.5 -81.5t-98 -74.5t-145.5 -62.5t-205 -41.5t-271 -16h-109q-141 0 -258.5 18t-200.5 49t-147.5 75.5t-104 93.5t-64.5 107t-34.5 112t-9.5 113v41q0 58 9 111
t33 110t63 104.5t102 91t146 73.5t200.5 47.5t259.5 17.5h113q150 0 271.5 -20t205.5 -52.5t147 -81t99.5 -99.5t58.5 -114t29.5 -117t7.5 -117v-61h-1198q13 -93 94 -148t240 -55h2q75 0 133 11.5t89 27.5t52 36.5t27 33.5t8 24h549zM451 1219v264h925v-264h-925z" />
    <glyph glyph-name="Ebreve" unicode="&#x114;" horiz-adv-x="1869" 
d="M98 1524h1686v-373h-1112v-190h1089v-371h-1089v-209h1128v-381h-1702v1524zM1008 1602h-82q-114 0 -201 26.5t-135 64.5t-78.5 88t-39.5 90t-9 79v4h375q0 -12 5 -26.5t17.5 -32.5t41 -30t67.5 -12t66.5 12t39.5 30t16.5 32.5t4.5 26.5h368v-4q0 -37 -12 -78.5
t-44 -90.5t-81 -88t-132 -65t-187 -26z" />
    <glyph glyph-name="ebreve" unicode="&#x115;" horiz-adv-x="1818" 
d="M956 1186h-82q-80 0 -147.5 13t-113.5 34.5t-81.5 51t-56.5 59.5t-34.5 63.5t-18 60.5t-4.5 52v4h370q0 -30 29.5 -62t100.5 -32q111 0 126 94h365v-4q0 -35 -12.5 -75.5t-45.5 -87.5t-82 -84t-130.5 -62t-182.5 -25zM909 862q-149 0 -222 -43t-95 -123h635
q-18 82 -92 124t-226 42zM1780 401v-4q0 -37 -7 -72.5t-29 -79.5t-57.5 -81.5t-98 -74.5t-145.5 -62.5t-205 -41.5t-271 -16h-109q-141 0 -258.5 18t-200.5 49t-147.5 75.5t-104 93.5t-64.5 107t-34.5 112t-9.5 113v41q0 58 9 111t33 110t63 104.5t102 91t146 73.5
t200.5 47.5t259.5 17.5h113q150 0 271.5 -20t205.5 -52.5t147 -81t99.5 -99.5t58.5 -114t29.5 -117t7.5 -117v-61h-1198q13 -93 94 -148t240 -55h2q75 0 133 11.5t89 27.5t52 36.5t27 33.5t8 24h549z" />
    <glyph glyph-name="Edotaccent" unicode="&#x116;" horiz-adv-x="1869" 
d="M98 1524h1686v-373h-1112v-190h1089v-371h-1089v-209h1128v-381h-1702v1524zM1239 1946v-330h-555v330h555z" />
    <glyph glyph-name="edotaccent" unicode="&#x117;" horiz-adv-x="1818" 
d="M1192 1524v-326h-557v326h557zM909 862q-149 0 -222 -43t-95 -123h635q-18 82 -92 124t-226 42zM1780 401v-4q0 -37 -7 -72.5t-29 -79.5t-57.5 -81.5t-98 -74.5t-145.5 -62.5t-205 -41.5t-271 -16h-109q-141 0 -258.5 18t-200.5 49t-147.5 75.5t-104 93.5t-64.5 107
t-34.5 112t-9.5 113v41q0 58 9 111t33 110t63 104.5t102 91t146 73.5t200.5 47.5t259.5 17.5h113q150 0 271.5 -20t205.5 -52.5t147 -81t99.5 -99.5t58.5 -114t29.5 -117t7.5 -117v-61h-1198q13 -93 94 -148t240 -55h2q75 0 133 11.5t89 27.5t52 36.5t27 33.5t8 24h549z" />
    <glyph glyph-name="Eogonek" unicode="&#x118;" horiz-adv-x="1869" 
d="M948 -238v7q0 81 95 132.5t300 98.5h234q-65 -42 -95 -69.5t-30 -55.5q0 -43 70 -43h61v-217h-334q-157 0 -229 36.5t-72 110.5zM98 1524h1686v-373h-1112v-190h1089v-371h-1089v-209h1128v-381h-1702v1524z" />
    <glyph glyph-name="eogonek" unicode="&#x119;" horiz-adv-x="1818" 
d="M1505 -168v-217h-336q-156 0 -227.5 36.5t-71.5 110.5v7q0 75 86.5 123t286.5 94q-153 -17 -276 -17h-109q-141 0 -258.5 18t-200.5 49t-147.5 75.5t-104 93.5t-64.5 107t-34.5 112t-9.5 113v41q0 58 9 111t33 110t63 104.5t102 91t146 73.5t200.5 47.5t259.5 17.5h113
q150 0 271.5 -20t205.5 -52.5t147 -81t99.5 -99.5t58.5 -114t29.5 -117t7.5 -117v-61h-1198q13 -93 94 -148t240 -55h2q75 0 133 11.5t89 27.5t52 36.5t27 33.5t8 24h549v-4q0 -114 -68 -204.5t-215 -188.5q-83 -60 -103 -84q-20 -23 -20 -45q0 -43 68 -43h63zM909 862
q-149 0 -222 -43t-95 -123h635q-18 82 -92 124t-226 42z" />
    <glyph glyph-name="Ecaron" unicode="&#x11a;" horiz-adv-x="1869" 
d="M98 1524h1686v-373h-1112v-190h1089v-371h-1089v-209h1128v-381h-1702v1524zM678 1616l-338 317h500l127 -118l125 118h493l-330 -317h-577z" />
    <glyph glyph-name="ecaron" unicode="&#x11b;" horiz-adv-x="1818" 
d="M618 1198l-309 326h490l116 -133l119 133h484l-308 -326h-592zM909 862q-149 0 -222 -43t-95 -123h635q-18 82 -92 124t-226 42zM1780 401v-4q0 -37 -7 -72.5t-29 -79.5t-57.5 -81.5t-98 -74.5t-145.5 -62.5t-205 -41.5t-271 -16h-109q-141 0 -258.5 18t-200.5 49
t-147.5 75.5t-104 93.5t-64.5 107t-34.5 112t-9.5 113v41q0 58 9 111t33 110t63 104.5t102 91t146 73.5t200.5 47.5t259.5 17.5h113q150 0 271.5 -20t205.5 -52.5t147 -81t99.5 -99.5t58.5 -114t29.5 -117t7.5 -117v-61h-1198q13 -93 94 -148t240 -55h2q75 0 133 11.5
t89 27.5t52 36.5t27 33.5t8 24h549z" />
    <glyph glyph-name="Gcircumflex" unicode="&#x11c;" horiz-adv-x="2373" 
d="M1470 1933l330 -313h-497l-127 119l-127 -119h-494l326 313h589zM1122 -29h-47q-173 0 -319 26t-250 69.5t-185.5 105.5t-132 129.5t-83 145t-45.5 148.5t-13 144v58q0 75 12 145.5t45 147.5t84.5 142t136 125.5t194 102.5t265 67t342.5 25h80q193 0 352.5 -22t267 -57
t190 -85.5t130 -101.5t77 -112t40 -109t12.5 -100v-2h-606q-3 12 -7.5 23t-19.5 31.5t-35.5 37.5t-59 36.5t-87 32.5t-122.5 22t-162 9q-148 0 -254.5 -30t-164 -84t-83 -118.5t-25.5 -144.5v-22q0 -76 29.5 -143t89.5 -122.5t163.5 -87.5t239.5 -32q112 0 204.5 15
t149.5 37.5t96.5 49.5t55 49.5t15.5 38.5h-535v297h1129v-858h-367q-8 41 -30 107t-42 104q-23 -26 -52 -51t-92 -61.5t-137.5 -62.5t-191.5 -45.5t-252 -19.5z" />
    <glyph glyph-name="gcircumflex" unicode="&#x11d;" horiz-adv-x="1929" 
d="M934 811h-12q-88 0 -153 -18.5t-100 -51.5t-51 -70t-16 -81v-10q0 -98 77 -166t243 -68h12q172 0 262 69t90 165v6q0 95 -89 160t-263 65zM1036 -399h-157q-142 0 -259 16t-195.5 41.5t-138.5 61t-93 71t-53.5 75.5t-27 69.5t-6.5 58.5v6h560q20 -92 286 -92h6
q334 0 334 280v23q-164 -164 -536 -164h-33q-147 0 -265 29t-195 78t-128.5 117t-73.5 142.5t-22 157.5v37q0 80 20 152t68.5 139t121 116t184.5 78t253 29h45q102 0 190.5 -12.5t144 -29t106 -42t72 -41t46.5 -36.5v141h557v-918q0 -52 -8.5 -102.5t-32 -110t-61 -111
t-101 -100t-145.5 -83t-201 -55.5t-262 -21zM1200 1524l313 -332h-485l-119 135l-118 -135h-478l312 332h575z" />
    <glyph glyph-name="Gbreve" unicode="&#x11e;" horiz-adv-x="2373" 
d="M1122 -29h-47q-173 0 -319 26t-250 69.5t-185.5 105.5t-132 129.5t-83 145t-45.5 148.5t-13 144v58q0 75 12 145.5t45 147.5t84.5 142t136 125.5t194 102.5t265 67t342.5 25h80q193 0 352.5 -22t267 -57t190 -85.5t130 -101.5t77 -112t40 -109t12.5 -100v-2h-606
q-3 12 -7.5 23t-19.5 31.5t-35.5 37.5t-59 36.5t-87 32.5t-122.5 22t-162 9q-148 0 -254.5 -30t-164 -84t-83 -118.5t-25.5 -144.5v-22q0 -76 29.5 -143t89.5 -122.5t163.5 -87.5t239.5 -32q112 0 204.5 15t149.5 37.5t96.5 49.5t55 49.5t15.5 38.5h-535v297h1129v-858h-367
q-8 41 -30 107t-42 104q-23 -26 -52 -51t-92 -61.5t-137.5 -62.5t-191.5 -45.5t-252 -19.5zM1223 1606h-82q-114 0 -201 26.5t-135 64.5t-78.5 88t-39.5 90t-9 79v4h375q0 -12 5 -26.5t17.5 -32.5t41 -29.5t67.5 -11.5t66.5 11.5t39.5 29.5t16.5 32.5t4.5 26.5h368v-4
q0 -37 -12 -78.5t-44 -90.5t-81 -88t-132 -65t-187 -26z" />
    <glyph glyph-name="gbreve" unicode="&#x11f;" horiz-adv-x="1929" 
d="M934 811h-12q-88 0 -153 -18.5t-100 -51.5t-51 -70t-16 -81v-10q0 -98 77 -166t243 -68h12q172 0 262 69t90 165v6q0 95 -89 160t-263 65zM1036 -399h-157q-142 0 -259 16t-195.5 41.5t-138.5 61t-93 71t-53.5 75.5t-27 69.5t-6.5 58.5v6h560q20 -92 286 -92h6
q334 0 334 280v23q-164 -164 -536 -164h-33q-147 0 -265 29t-195 78t-128.5 117t-73.5 142.5t-22 157.5v37q0 80 20 152t68.5 139t121 116t184.5 78t253 29h45q102 0 190.5 -12.5t144 -29t106 -42t72 -41t46.5 -36.5v141h557v-918q0 -52 -8.5 -102.5t-32 -110t-61 -111
t-101 -100t-145.5 -83t-201 -55.5t-262 -21zM1405 1524v-4q0 -37 -12.5 -78t-45 -88.5t-81.5 -84.5t-130.5 -62t-183.5 -25h-82q-111 0 -196.5 25t-133.5 61.5t-77.5 85t-39 88t-9.5 78.5v4h370q0 -13 4.5 -27.5t17 -32t40 -28.5t67.5 -11q69 0 98 33.5t29 65.5h365z" />
    <glyph glyph-name="Gdotaccent" unicode="&#x120;" horiz-adv-x="2373" 
d="M1458 1939v-317h-559v317h559zM1122 -29h-47q-173 0 -319 26t-250 69.5t-185.5 105.5t-132 129.5t-83 145t-45.5 148.5t-13 144v58q0 75 12 145.5t45 147.5t84.5 142t136 125.5t194 102.5t265 67t342.5 25h80q193 0 352.5 -22t267 -57t190 -85.5t130 -101.5t77 -112
t40 -109t12.5 -100v-2h-606q-3 12 -7.5 23t-19.5 31.5t-35.5 37.5t-59 36.5t-87 32.5t-122.5 22t-162 9q-148 0 -254.5 -30t-164 -84t-83 -118.5t-25.5 -144.5v-22q0 -76 29.5 -143t89.5 -122.5t163.5 -87.5t239.5 -32q112 0 204.5 15t149.5 37.5t96.5 49.5t55 49.5
t15.5 38.5h-535v297h1129v-858h-367q-8 41 -30 107t-42 104q-23 -26 -52 -51t-92 -61.5t-137.5 -62.5t-191.5 -45.5t-252 -19.5z" />
    <glyph glyph-name="gdotaccent" unicode="&#x121;" horiz-adv-x="1929" 
d="M934 811h-12q-88 0 -153 -18.5t-100 -51.5t-51 -70t-16 -81v-10q0 -98 77 -166t243 -68h12q172 0 262 69t90 165v6q0 95 -89 160t-263 65zM1036 -399h-157q-142 0 -259 16t-195.5 41.5t-138.5 61t-93 71t-53.5 75.5t-27 69.5t-6.5 58.5v6h560q20 -92 286 -92h6
q334 0 334 280v23q-164 -164 -536 -164h-33q-147 0 -265 29t-195 78t-128.5 117t-73.5 142.5t-22 157.5v37q0 80 20 152t68.5 139t121 116t184.5 78t253 29h45q102 0 190.5 -12.5t144 -29t106 -42t72 -41t46.5 -36.5v141h557v-918q0 -52 -8.5 -102.5t-32 -110t-61 -111
t-101 -100t-145.5 -83t-201 -55.5t-262 -21zM1186 1524v-330h-555v330h555z" />
    <glyph glyph-name="uni0122" unicode="&#x122;" horiz-adv-x="2373" 
d="M1260 -612h-267q57 104 72 188h-231v326h528v-256q0 -98 -102 -258zM1122 -29h-47q-173 0 -319 26t-250 69.5t-185.5 105.5t-132 129.5t-83 145t-45.5 148.5t-13 144v58q0 75 12 145.5t45 147.5t84.5 142t136 125.5t194 102.5t265 67t342.5 25h80q193 0 352.5 -22
t267 -57t190 -85.5t130 -101.5t77 -112t40 -109t12.5 -100v-2h-606q-3 12 -7.5 23t-19.5 31.5t-35.5 37.5t-59 36.5t-87 32.5t-122.5 22t-162 9q-148 0 -254.5 -30t-164 -84t-83 -118.5t-25.5 -144.5v-22q0 -76 29.5 -143t89.5 -122.5t163.5 -87.5t239.5 -32q112 0 204.5 15
t149.5 37.5t96.5 49.5t55 49.5t15.5 38.5h-535v297h1129v-858h-367q-8 41 -30 107t-42 104q-23 -26 -52 -51t-92 -61.5t-137.5 -62.5t-191.5 -45.5t-252 -19.5z" />
    <glyph glyph-name="uni0123" unicode="&#x123;" horiz-adv-x="1929" 
d="M934 811h-12q-88 0 -153 -18.5t-100 -51.5t-51 -70t-16 -81v-10q0 -98 77 -166t243 -68h12q172 0 262 69t90 165v6q0 95 -89 160t-263 65zM1036 -399h-157q-142 0 -259 16t-195.5 41.5t-138.5 61t-93 71t-53.5 75.5t-27 69.5t-6.5 58.5v6h560q20 -92 286 -92h6
q334 0 334 280v23q-164 -164 -536 -164h-33q-147 0 -265 29t-195 78t-128.5 117t-73.5 142.5t-22 157.5v37q0 80 20 152t68.5 139t121 116t184.5 78t253 29h45q102 0 190.5 -12.5t144 -29t106 -42t72 -41t46.5 -36.5v141h557v-918q0 -52 -8.5 -102.5t-32 -110t-61 -111
t-101 -100t-145.5 -83t-201 -55.5t-262 -21zM743 1708h267q-57 -104 -72 -188h231v-326h-528v256q0 56 32 131t70 127z" />
    <glyph glyph-name="Hcircumflex" unicode="&#x124;" horiz-adv-x="2310" 
d="M98 0v1524h582v-539h952v539h580v-1524h-580v580h-952v-580h-582zM1442 1933l336 -317h-500l-127 119l-125 -119h-494l332 317h578z" />
    <glyph glyph-name="hcircumflex" unicode="&#x125;" horiz-adv-x="1837" 
d="M82 0v1524h557v-615q217 217 565 217h13q118 0 213.5 -27t155 -69.5t99.5 -99t56 -111t16 -110.5v-709h-559v526q0 117 -65 185.5t-201 68.5q-138 0 -215.5 -74t-77.5 -194v-512h-557zM1141 1933l336 -317h-500l-127 119l-125 -119h-494l332 317h578z" />
    <glyph glyph-name="Hbar" unicode="&#x126;" horiz-adv-x="2373" 
d="M-6 1135v256h2386v-256h-2386zM129 0v1524h582v-539h952v539h580v-1524h-580v580h-952v-580h-582z" />
    <glyph glyph-name="hbar" unicode="&#x127;" horiz-adv-x="1837" 
d="M-59 1423h1210v-225h-1210v225zM82 0v1524h557v-615q217 217 565 217h13q118 0 213.5 -27t155 -69.5t99.5 -99t56 -111t16 -110.5v-709h-559v526q0 117 -65 185.5t-201 68.5q-138 0 -215.5 -74t-77.5 -194v-512h-557z" />
    <glyph glyph-name="Itilde" unicode="&#x128;" horiz-adv-x="776" 
d="M678 1524v-1524h-580v1524h580zM659 1624h-10q-66 0 -118.5 11.5t-157.5 47.5q-85 31 -123 31q-37 0 -37 -43v-59h-330v174q0 36 9.5 67.5t32.5 63.5t72 51t118 19h8q23 0 46 -2.5t37.5 -4t44.5 -9.5t40 -10.5t54 -16t58 -17.5q95 -31 121 -31q17 0 26 11.5t9 29.5v60
h330v-162q0 -211 -230 -211z" />
    <glyph glyph-name="itilde" unicode="&#x129;" horiz-adv-x="720" 
d="M575 1198h-8q-43 0 -82.5 11.5t-136.5 47.5q-69 29 -92 29q-27 0 -27 -43v-55h-270v160q0 36 7.5 67.5t26.5 63.5t58 50.5t94 18.5h7q50 0 94 -12t129 -49q9 -3 27.5 -10.5t25 -9.5t17 -4.5t18.5 -2.5q24 0 24 41v58h273v-150q0 -211 -185 -211zM639 1102v-1102h-557
v1102h557z" />
    <glyph glyph-name="Imacron" unicode="&#x12a;" horiz-adv-x="776" 
d="M-51 1632v271h878v-271h-878zM678 1524v-1524h-580v1524h580z" />
    <glyph glyph-name="imacron" unicode="&#x12b;" horiz-adv-x="720" 
d="M-29 1214v265h779v-265h-779zM639 1102v-1102h-557v1102h557z" />
    <glyph glyph-name="Ibreve" unicode="&#x12c;" horiz-adv-x="776" 
d="M678 1524v-1524h-580v1524h580zM434 1602h-82q-114 0 -201 26.5t-135 64.5t-78.5 88t-39.5 90t-9 79v4h375q0 -12 5 -26.5t17.5 -32.5t41 -30t67.5 -12t66.5 12t39.5 30t16.5 32.5t4.5 26.5h369v-4q0 -37 -12 -78.5t-44.5 -90.5t-81.5 -88t-132 -65t-187 -26z" />
    <glyph glyph-name="ibreve" unicode="&#x12d;" horiz-adv-x="720" 
d="M774 1524v-4q0 -41 -8.5 -81.5t-35.5 -89t-68.5 -84.5t-115.5 -60.5t-169 -24.5h-29q-99 0 -175 24.5t-118 60.5t-68 84.5t-34 89t-8 81.5v4h321q0 -34 21.5 -62t74.5 -28q49 0 71 28.5t22 61.5h319zM639 1102v-1102h-557v1102h557z" />
    <glyph glyph-name="Iogonek" unicode="&#x12e;" horiz-adv-x="776" 
d="M678 1524v-1524h-580v1524h580zM51 -238v7q0 80 95.5 131.5t299.5 99.5h234q-63 -41 -93 -69t-30 -56q0 -43 68 -43h55v-217h-328q-157 0 -229 36.5t-72 110.5z" />
    <glyph glyph-name="iogonek" unicode="&#x12f;" horiz-adv-x="720" 
d="M639 1524v-330h-557v330h557zM639 1102v-1102h-557v1102h557zM10 -238v7q0 80 95.5 131.5t300.5 99.5h233q-63 -41 -93 -69t-30 -56q0 -43 68 -43h55v-217h-328q-157 0 -229 36.5t-72 110.5z" />
    <glyph glyph-name="Idotaccent" unicode="&#x130;" horiz-adv-x="776" 
d="M678 1524v-1524h-580v1524h580zM666 1946v-330h-555v330h555z" />
    <glyph glyph-name="dotlessi" unicode="&#x131;" horiz-adv-x="720" 
d="M639 1102v-1102h-557v1102h557z" />
    <glyph glyph-name="IJ" unicode="&#x132;" horiz-adv-x="2705" 
d="M678 1524v-1524h-580v1524h580zM1751 -23h-125q-150 0 -274.5 24.5t-210.5 65.5t-152 98.5t-105 118t-64 130.5t-33.5 129t-8.5 121v12h572q2 -18 4.5 -33.5t12 -44t23 -51t39 -48.5t59 -43.5t85 -29.5t113.5 -12h16q175 0 256.5 92t81.5 250v768h581v-781
q0 -75 -8.5 -143t-32.5 -147t-63.5 -145t-107 -129t-156 -106t-217 -69.5t-285.5 -26.5z" />
    <glyph glyph-name="ij" unicode="&#x133;" horiz-adv-x="1427" 
d="M639 1524v-330h-557v330h557zM639 1102v-1102h-557v1102h557zM1346 1524v-330h-558v330h558zM649 -55h74q38 0 51.5 14.5t13.5 60.5v1082h558v-1184q0 -158 -64 -230.5t-166 -72.5h-467v330z" />
    <glyph glyph-name="Jcircumflex" unicode="&#x134;" horiz-adv-x="1941" 
d="M987 -23h-125q-150 0 -274.5 24.5t-210.5 65.5t-152 98.5t-105 118t-64 130.5t-33.5 129t-8.5 121v12h572q2 -18 4.5 -33.5t12 -44t23 -51t39 -48.5t59 -43.5t85 -29.5t113.5 -12h16q175 0 256.5 92t81.5 250v768h582v-781q0 -75 -8.5 -143t-33 -147t-63.5 -145
t-107 -129t-156.5 -106t-217 -69.5t-285.5 -26.5zM1847 1933l336 -317h-500l-127 119l-124 -119h-494l332 317h577z" />
    <glyph glyph-name="jcircumflex" unicode="&#x135;" horiz-adv-x="720" 
d="M614 1524l226 -330h-396l-88 135l-88 -135h-389l223 330h512zM-57 -55h73q38 0 52 14.5t14 60.5v1082h557v-1184q0 -158 -63.5 -230.5t-165.5 -72.5h-467v330z" />
    <glyph glyph-name="uni0136" unicode="&#x136;" horiz-adv-x="2142" 
d="M1190 -606h-266q55 102 71 188h-231v326h528v-256q0 -98 -102 -258zM680 0h-582v1524h582v-602l750 602h722l-886 -693l915 -831h-758l-743 682v-682z" />
    <glyph glyph-name="uni0137" unicode="&#x137;" horiz-adv-x="1652" 
d="M999 -606h-266q57 104 72 188h-232v326h529v-256q0 -97 -103 -258zM639 0h-557v1524h557v-852l377 430h600l-449 -488l514 -614h-632l-410 496v-496z" />
    <glyph glyph-name="Lacute" unicode="&#x139;" horiz-adv-x="1792" 
d="M98 1524h582v-1088h1057v-436h-1639v1524zM135 1616l162 317h571l-206 -317h-527z" />
    <glyph glyph-name="lacute" unicode="&#x13a;" horiz-adv-x="720" 
d="M115 1616l170 311h551l-218 -311h-503zM639 1524v-1524h-557v1524h557z" />
    <glyph glyph-name="uni013B" unicode="&#x13b;" horiz-adv-x="1792" 
d="M1083 -606h-266q57 104 72 188h-232v326h529v-256q0 -97 -103 -258zM98 1524h582v-1088h1057v-436h-1639v1524z" />
    <glyph glyph-name="uni013C" unicode="&#x13c;" horiz-adv-x="720" 
d="M522 -606h-266q57 104 72 188h-232v326h529v-256q0 -97 -103 -258zM639 1524v-1524h-557v1524h557z" />
    <glyph glyph-name="Lcaron" unicode="&#x13d;" horiz-adv-x="1792" 
d="M98 1524h582v-1088h1057v-436h-1639v1524zM733 1178l29 346h420l-58 -346h-391z" />
    <glyph glyph-name="lcaron" unicode="&#x13e;" horiz-adv-x="720" 
d="M639 1524v-1524h-557v1524h557zM692 1178l29 346h420l-58 -346h-391z" />
    <glyph glyph-name="Ldot" unicode="&#x13f;" horiz-adv-x="1783" 
d="M98 1524h582v-1088h1057v-436h-1639v1524zM1595 1073v-399h-575v399h575z" />
    <glyph glyph-name="ldot" unicode="&#x140;" horiz-adv-x="1294" 
d="M1280 987v-399h-557v399h557zM639 1524v-1524h-557v1524h557z" />
    <glyph glyph-name="Lslash" unicode="&#x141;" horiz-adv-x="1832" 
d="M139 1524h582v-594l620 221v-320l-620 -215v-180h1057v-436h-1639v416l-141 -49v305l141 49v803z" />
    <glyph glyph-name="lslash" unicode="&#x142;" horiz-adv-x="786" 
d="M670 752v-752h-557v512l-109 -45v307l109 47v703h557v-461l110 49v-313z" />
    <glyph glyph-name="Nacute" unicode="&#x143;" horiz-adv-x="2310" 
d="M98 1524h652l884 -867v867h578v-1524h-582l-954 924v-924h-578v1524zM895 1616l162 317h571l-207 -317h-526z" />
    <glyph glyph-name="nacute" unicode="&#x144;" horiz-adv-x="1837" 
d="M82 0v1102h553v-195q23 21 31.5 29t44.5 36t63.5 43.5t78 39.5t98.5 37t115 23.5t138 10.5h13q118 0 213.5 -27t155 -69.5t99.5 -99t56 -111t16 -110.5v-709h-559v526q0 117 -65 185.5t-201 68.5q-138 0 -215.5 -74t-77.5 -194v-512h-557zM670 1194l182 330h549
l-227 -330h-504z" />
    <glyph glyph-name="uni0145" unicode="&#x145;" horiz-adv-x="2310" 
d="M1313 -606h-266q55 102 71 188h-231v326h528v-256q0 -98 -102 -258zM98 1524h652l884 -867v867h578v-1524h-582l-954 924v-924h-578v1524z" />
    <glyph glyph-name="uni0146" unicode="&#x146;" horiz-adv-x="1837" 
d="M1081 -606h-266q57 104 72 188h-232v326h529v-256q0 -97 -103 -258zM82 0v1102h553v-195q23 21 31.5 29t44.5 36t63.5 43.5t78 39.5t98.5 37t115 23.5t138 10.5h13q118 0 213.5 -27t155 -69.5t99.5 -99t56 -111t16 -110.5v-709h-559v526q0 117 -65 185.5t-201 68.5
q-138 0 -215.5 -74t-77.5 -194v-512h-557z" />
    <glyph glyph-name="Ncaron" unicode="&#x147;" horiz-adv-x="2310" 
d="M98 1524h652l884 -867v867h578v-1524h-582l-954 924v-924h-578v1524zM868 1616l-338 317h500l127 -118l125 118h494l-330 -317h-578z" />
    <glyph glyph-name="ncaron" unicode="&#x148;" horiz-adv-x="1837" 
d="M82 0v1102h553v-195q23 21 31.5 29t44.5 36t63.5 43.5t78 39.5t98.5 37t115 23.5t138 10.5h13q118 0 213.5 -27t155 -69.5t99.5 -99t56 -111t16 -110.5v-709h-559v526q0 117 -65 185.5t-201 68.5q-138 0 -215.5 -74t-77.5 -194v-512h-557zM637 1194l-313 330h483
l119 -133l118 133h480l-312 -330h-575z" />
    <glyph glyph-name="napostrophe" unicode="&#x149;" horiz-adv-x="2351" 
d="M596 0v1102h553v-195q23 21 31.5 29t44.5 36t63.5 43.5t78 39.5t98.5 37t115 23.5t138 10.5h13q118 0 213.5 -27t155 -69.5t99.5 -99t56 -111t16 -110.5v-709h-559v526q0 117 -65 185.5t-201 68.5q-138 0 -215.5 -74t-77.5 -194v-512h-557zM440 973h-286q70 126 82 213
h-228v338h547v-275q0 -63 -35.5 -139.5t-79.5 -136.5z" />
    <glyph glyph-name="Eng" unicode="&#x14a;" horiz-adv-x="2310" 
d="M2212 1524v-1477q0 -215 -97 -323.5t-253 -108.5h-441v350h162q41 0 41 29q0 12 -10 24.5t-44 46.5l-7 7l-887 852v-924h-578v1524h652l884 -867v867h578z" />
    <glyph glyph-name="eng" unicode="&#x14b;" horiz-adv-x="1837" 
d="M1757 709v-795q0 -155 -64 -229t-161 -74h-524v350h120q39 0 54.5 17t15.5 63v485q0 117 -65 185.5t-201 68.5q-138 0 -215.5 -74t-77.5 -194v-512h-557v1102h553v-195q23 21 31.5 29t44.5 36t63.5 43.5t78 39.5t98.5 37t115 23.5t138 10.5h13q118 0 213.5 -27t155 -69.5
t99.5 -99t56 -111t16 -110.5z" />
    <glyph glyph-name="Omacron" unicode="&#x14c;" horiz-adv-x="2408" 
d="M1159 1552h92q160 0 297 -16.5t240 -45t187.5 -70.5t143 -88t103 -102t70.5 -109t42 -113t21.5 -109t5.5 -102v-62q0 -69 -9.5 -132.5t-39 -143t-78 -145.5t-134 -131.5t-198.5 -110.5t-280 -73t-371 -28h-92q-204 0 -371.5 28t-281 73t-199 110.5t-134 131.5t-78 145.5
t-39 143t-9.5 132.5v62q0 69 9.5 132.5t39 142t78 143.5t134 129.5t199 108.5t281 71.5t371.5 27.5zM1759 754v28q0 53 -14 100.5t-52 96.5t-98 84t-160.5 57.5t-230.5 22.5q-132 0 -233.5 -22.5t-161 -57.5t-97 -84.5t-50.5 -96.5t-13 -100v-24q0 -52 14 -100.5t52 -100
t98 -89t160.5 -61.5t230.5 -24t230.5 23t160.5 59.5t98 87.5t52 99.5t14 101.5zM723 1636v271h960v-271h-960z" />
    <glyph glyph-name="omacron" unicode="&#x14d;" horiz-adv-x="1898" 
d="M1026 -31h-152q-146 0 -267.5 19.5t-206.5 52t-150.5 79t-104.5 96t-63.5 108t-33.5 110.5t-9 107v32q0 54 8.5 104.5t33 108t63.5 106t104 94t149.5 77.5t206 51t268.5 19h156q832 0 832 -558v-36q0 -57 -7 -106.5t-29 -109t-58.5 -108t-100.5 -96t-149.5 -79.5
t-210.5 -51.5t-279 -19.5zM952 821h-2q-79 0 -141 -15.5t-99.5 -40.5t-62 -59.5t-34 -69t-9.5 -73.5v-8q0 -39 9 -75t33.5 -73t62 -63.5t99.5 -43.5t142 -17h2q78 0 140 17.5t99 45t61.5 64.5t34 72.5t9.5 72.5v8q0 49 -16.5 92t-53 82t-107 61.5t-167.5 22.5zM485 1219v264
h926v-264h-926z" />
    <glyph glyph-name="Obreve" unicode="&#x14e;" horiz-adv-x="2408" 
d="M1159 1552h92q160 0 297 -16.5t240 -45t187.5 -70.5t143 -88t103 -102t70.5 -109t42 -113t21.5 -109t5.5 -102v-62q0 -69 -9.5 -132.5t-39 -143t-78 -145.5t-134 -131.5t-198.5 -110.5t-280 -73t-371 -28h-92q-204 0 -371.5 28t-281 73t-199 110.5t-134 131.5t-78 145.5
t-39 143t-9.5 132.5v62q0 69 9.5 132.5t39 142t78 143.5t134 129.5t199 108.5t281 71.5t371.5 27.5zM1759 754v28q0 53 -14 100.5t-52 96.5t-98 84t-160.5 57.5t-230.5 22.5q-132 0 -233.5 -22.5t-161 -57.5t-97 -84.5t-50.5 -96.5t-13 -100v-24q0 -52 14 -100.5t52 -100
t98 -89t160.5 -61.5t230.5 -24t230.5 23t160.5 59.5t98 87.5t52 99.5t14 101.5zM1249 1606h-82q-114 0 -201 26.5t-135 64.5t-78 88t-39 90t-9 79v4h374q0 -12 5 -26.5t17.5 -32.5t41 -29.5t67.5 -11.5t66.5 11.5t39.5 29.5t16.5 32.5t4.5 26.5h369v-4q0 -37 -12 -78.5
t-44.5 -90.5t-81.5 -88t-132 -65t-187 -26z" />
    <glyph glyph-name="obreve" unicode="&#x14f;" horiz-adv-x="1898" 
d="M993 1186h-82q-80 0 -147.5 13t-113.5 34.5t-81.5 51t-56.5 59.5t-34.5 63.5t-18 60.5t-4.5 52v4h370q0 -12 5.5 -26t18 -30t40 -27t65.5 -11q112 0 127 94h365v-4q0 -35 -12.5 -75.5t-45.5 -87.5t-82 -84t-130.5 -62t-182.5 -25zM1026 -31h-152q-146 0 -267.5 19.5
t-206.5 52t-150.5 79t-104.5 96t-63.5 108t-33.5 110.5t-9 107v32q0 54 8.5 104.5t33 108t63.5 106t104 94t149.5 77.5t206 51t268.5 19h156q832 0 832 -558v-36q0 -57 -7 -106.5t-29 -109t-58.5 -108t-100.5 -96t-149.5 -79.5t-210.5 -51.5t-279 -19.5zM952 821h-2
q-79 0 -141 -15.5t-99.5 -40.5t-62 -59.5t-34 -69t-9.5 -73.5v-8q0 -39 9 -75t33.5 -73t62 -63.5t99.5 -43.5t142 -17h2q78 0 140 17.5t99 45t61.5 64.5t34 72.5t9.5 72.5v8q0 49 -16.5 92t-53 82t-107 61.5t-167.5 22.5z" />
    <glyph glyph-name="Ohungarumlaut" unicode="&#x150;" horiz-adv-x="2408" 
d="M1264 1622l120 311h502l-133 -311h-489zM686 1622l107 311h501l-118 -311h-490zM1159 1552h92q160 0 297 -16.5t240 -45t187.5 -70.5t143 -88t103 -102t70.5 -109t42 -113t21.5 -109t5.5 -102v-62q0 -69 -9.5 -132.5t-39 -143t-78 -145.5t-134 -131.5t-198.5 -110.5
t-280 -73t-371 -28h-92q-204 0 -371.5 28t-281 73t-199 110.5t-134 131.5t-78 145.5t-39 143t-9.5 132.5v62q0 69 9.5 132.5t39 142t78 143.5t134 129.5t199 108.5t281 71.5t371.5 27.5zM1759 754v28q0 53 -14 100.5t-52 96.5t-98 84t-160.5 57.5t-230.5 22.5
q-132 0 -233.5 -22.5t-161 -57.5t-97 -84.5t-50.5 -96.5t-13 -100v-24q0 -52 14 -100.5t52 -100t98 -89t160.5 -61.5t230.5 -24t230.5 23t160.5 59.5t98 87.5t52 99.5t14 101.5z" />
    <glyph glyph-name="ohungarumlaut" unicode="&#x151;" horiz-adv-x="1898" 
d="M1012 1198l127 326h485l-139 -326h-473zM453 1198l112 326h484l-125 -326h-471zM1026 -31h-152q-146 0 -267.5 19.5t-206.5 52t-150.5 79t-104.5 96t-63.5 108t-33.5 110.5t-9 107v32q0 54 8.5 104.5t33 108t63.5 106t104 94t149.5 77.5t206 51t268.5 19h156
q832 0 832 -558v-36q0 -57 -7 -106.5t-29 -109t-58.5 -108t-100.5 -96t-149.5 -79.5t-210.5 -51.5t-279 -19.5zM952 821h-2q-79 0 -141 -15.5t-99.5 -40.5t-62 -59.5t-34 -69t-9.5 -73.5v-8q0 -39 9 -75t33.5 -73t62 -63.5t99.5 -43.5t142 -17h2q78 0 140 17.5t99 45
t61.5 64.5t34 72.5t9.5 72.5v8q0 49 -16.5 92t-53 82t-107 61.5t-167.5 22.5z" />
    <glyph glyph-name="OE" unicode="&#x152;" horiz-adv-x="3473" 
d="M1194 1141q-130 0 -229.5 -22t-158 -56t-95 -83t-49.5 -96.5t-13 -101.5v-24q0 -53 13.5 -101.5t51.5 -99.5t97 -88t157.5 -60.5t225.5 -23.5t225.5 23t157 59t96 86.5t51 99t13.5 101.5v28q0 54 -13.5 101.5t-51 96t-96 83t-156.5 56.5t-226 22zM1812 0v143
q-83 -69 -251 -119.5t-412 -50.5h-76q-185 0 -337.5 27.5t-257 72.5t-184 109.5t-125.5 131t-74.5 144.5t-38 142.5t-9.5 132.5v62q0 69 9.5 133t37.5 142t74 143.5t125 129t183.5 107.5t257.5 71t339 27h76q439 0 663 -151v127h1575v-373h-1077v-190h1057v-371h-1057v-209
h1094v-381h-1592z" />
    <glyph glyph-name="oe" unicode="&#x153;" horiz-adv-x="3074" 
d="M2173 862q-147 0 -220 -43t-95 -123h630q-18 82 -92 124t-223 42zM604 563v-8q0 -50 16 -94.5t52 -86t106.5 -66.5t167.5 -25h2q78 0 139.5 17.5t98.5 45t61.5 64.5t33.5 72.5t9 72.5v8q0 39 -9 73.5t-33 69t-61.5 59.5t-98 40.5t-138.5 15.5h-4q-97 0 -167 -22.5
t-106.5 -61.5t-52.5 -82t-16 -92zM1583 135q-180 -166 -606 -166h-115q-145 0 -264.5 19.5t-203 52t-148 79t-103 96t-63 108t-33 110.5t-8.5 107v32q0 54 8.5 104.5t32.5 108t62 106t102 94t147.5 77.5t203.5 51t265 19h119q410 0 602 -162q183 159 578 159h79
q148 0 268 -20t202 -52.5t143.5 -81t96.5 -98.5t56.5 -113t28 -116.5t6.5 -116.5v-61h-1188q13 -93 93.5 -148t236.5 -55h2q75 0 133 11.5t89 27.5t52 36.5t27 33.5t8 24h545v-4q0 -36 -6.5 -70t-27 -78.5t-54.5 -81.5t-95.5 -74.5t-142.5 -63.5t-202 -42t-268 -16h-74
q-391 0 -584 164z" />
    <glyph glyph-name="Racute" unicode="&#x154;" horiz-adv-x="2191" 
d="M680 1153v-262h668q92 0 134 35.5t42 95.5v2q0 129 -176 129h-668zM680 522v-522h-582v1524h1385q641 0 641 -391v-23q0 -63 -21 -117.5t-53.5 -90.5t-75.5 -64t-81 -43.5t-76 -24.5q146 -33 229.5 -125.5t83.5 -236.5v-226q0 -116 29 -172v-10h-594q-19 22 -19 80v178
q0 135 -71 199.5t-238 64.5h-557zM799 1616l162 317h571l-207 -317h-526z" />
    <glyph glyph-name="racute" unicode="&#x155;" horiz-adv-x="1617" 
d="M635 1102v-203q16 24 38 48.5t64 58t90.5 59t119.5 43.5t149 18h24q106 0 188 -28.5t133 -74.5t84 -111t45.5 -131.5t12.5 -141.5v-111h-541v39q0 101 -48 163.5t-150 62.5q-96 0 -150.5 -65.5t-54.5 -172.5v-555h-557v1102h553zM547 1194l182 330h549l-227 -330h-504z
" />
    <glyph glyph-name="uni0156" unicode="&#x156;" horiz-adv-x="2191" 
d="M1274 -606h-266q55 102 71 188h-231v326h528v-256q0 -98 -102 -258zM680 1153v-262h668q92 0 134 35.5t42 95.5v2q0 129 -176 129h-668zM680 522v-522h-582v1524h1385q641 0 641 -391v-23q0 -63 -21 -117.5t-53.5 -90.5t-75.5 -64t-81 -43.5t-76 -24.5
q146 -33 229.5 -125.5t83.5 -236.5v-226q0 -116 29 -172v-10h-594q-19 22 -19 80v178q0 135 -71 199.5t-238 64.5h-557z" />
    <glyph glyph-name="uni0157" unicode="&#x157;" horiz-adv-x="1617" 
d="M520 -606h-266q57 104 72 188h-232v326h529v-256q0 -97 -103 -258zM635 1102v-203q16 24 38 48.5t64 58t90.5 59t119.5 43.5t149 18h24q106 0 188 -28.5t133 -74.5t84 -111t45.5 -131.5t12.5 -141.5v-111h-541v39q0 101 -48 163.5t-150 62.5q-96 0 -150.5 -65.5
t-54.5 -172.5v-555h-557v1102h553z" />
    <glyph glyph-name="Rcaron" unicode="&#x158;" horiz-adv-x="2191" 
d="M680 1153v-262h668q92 0 134 35.5t42 95.5v2q0 129 -176 129h-668zM680 522v-522h-582v1524h1385q641 0 641 -391v-23q0 -63 -21 -117.5t-53.5 -90.5t-75.5 -64t-81 -43.5t-76 -24.5q146 -33 229.5 -125.5t83.5 -236.5v-226q0 -116 29 -172v-10h-594q-19 22 -19 80v178
q0 135 -71 199.5t-238 64.5h-557zM772 1616l-338 317h500l127 -118l125 118h493l-329 -317h-578z" />
    <glyph glyph-name="rcaron" unicode="&#x159;" horiz-adv-x="1617" 
d="M635 1102v-203q16 24 38 48.5t64 58t90.5 59t119.5 43.5t149 18h24q106 0 188 -28.5t133 -74.5t84 -111t45.5 -131.5t12.5 -141.5v-111h-541v39q0 101 -48 163.5t-150 62.5q-96 0 -150.5 -65.5t-54.5 -172.5v-555h-557v1102h553zM506 1194l-313 330h483l119 -133l118 133
h480l-312 -330h-575z" />
    <glyph glyph-name="Sacute" unicode="&#x15a;" horiz-adv-x="2121" 
d="M784 1622l162 311h572l-207 -311h-527zM1145 -29h-187q-929 0 -929 541v20h639q2 -30 9.5 -54.5t32 -56t63.5 -53t110 -36.5t166 -15h18q95 0 164 8t108.5 21t63 32.5t30.5 38.5t7 44v2q0 33 -11.5 53.5t-47.5 40t-109.5 29.5t-190.5 14l-282 8q-748 20 -748 459v18
q0 79 22.5 144t82 126.5t156 103t253 66.5t363.5 25h182q926 0 926 -481v-16h-633q-2 21 -8.5 38.5t-29.5 41.5t-60 40.5t-107 28.5t-164 12h-20q-89 0 -152 -6.5t-98 -16t-55 -25t-25.5 -30t-5.5 -34.5v-2q0 -25 12 -43.5t45.5 -35.5t102 -26.5t172.5 -11.5l274 -6
q432 -12 618.5 -119.5t186.5 -339.5v-29q0 -84 -20.5 -153t-82 -139.5t-162.5 -118t-274 -77.5t-405 -30z" />
    <glyph glyph-name="sacute" unicode="&#x15b;" horiz-adv-x="1667" 
d="M567 1198l178 326h551l-225 -326h-504zM874 -31h-112q-137 0 -249 14.5t-187 37.5t-131.5 57t-87.5 67.5t-50 74.5t-24.5 73t-5.5 67v15h567q0 -20 7 -39t28 -43t70 -38.5t122 -14.5h4q71 0 118.5 7.5t70 21.5t31 28.5t8.5 34.5v4q0 29 -14 46t-61.5 29t-135.5 15l-234 6
q-569 20 -569 346v13q0 59 16.5 105.5t63.5 92.5t125 76t209.5 49t308.5 19h108q124 0 226.5 -10t176 -27t130.5 -42.5t92.5 -54.5t57.5 -64.5t31 -70t9 -73.5v-15h-557q-3 20 -9.5 33t-27 31.5t-67 28.5t-117.5 10h-2q-87 0 -135.5 -9.5t-64 -24.5t-15.5 -42v-2
q0 -24 15 -39.5t62 -27.5t128 -15l231 -6q148 -5 253.5 -22t173 -44.5t106 -71.5t53 -93.5t14.5 -119.5v-14q0 -47 -8 -85.5t-29.5 -78.5t-57.5 -71t-94.5 -58.5t-136.5 -46t-188 -29t-246 -10.5z" />
    <glyph glyph-name="Scircumflex" unicode="&#x15c;" horiz-adv-x="2121" 
d="M1346 1933l329 -313h-497l-127 119l-127 -119h-492l324 313h590zM1145 -29h-187q-929 0 -929 541v20h639q2 -30 9.5 -54.5t32 -56t63.5 -53t110 -36.5t166 -15h18q95 0 164 8t108.5 21t63 32.5t30.5 38.5t7 44v2q0 33 -11.5 53.5t-47.5 40t-109.5 29.5t-190.5 14l-282 8
q-748 20 -748 459v18q0 79 22.5 144t82 126.5t156 103t253 66.5t363.5 25h182q926 0 926 -481v-16h-633q-2 21 -8.5 38.5t-29.5 41.5t-60 40.5t-107 28.5t-164 12h-20q-89 0 -152 -6.5t-98 -16t-55 -25t-25.5 -30t-5.5 -34.5v-2q0 -25 12 -43.5t45.5 -35.5t102 -26.5
t172.5 -11.5l274 -6q432 -12 618.5 -119.5t186.5 -339.5v-29q0 -84 -20.5 -153t-82 -139.5t-162.5 -118t-274 -77.5t-405 -30z" />
    <glyph glyph-name="scircumflex" unicode="&#x15d;" horiz-adv-x="1667" 
d="M1108 1524l313 -326h-483l-119 129l-119 -129h-477l312 326h573zM874 -31h-112q-137 0 -249 14.5t-187 37.5t-131.5 57t-87.5 67.5t-50 74.5t-24.5 73t-5.5 67v15h567q0 -20 7 -39t28 -43t70 -38.5t122 -14.5h4q71 0 118.5 7.5t70 21.5t31 28.5t8.5 34.5v4q0 29 -14 46
t-61.5 29t-135.5 15l-234 6q-569 20 -569 346v13q0 59 16.5 105.5t63.5 92.5t125 76t209.5 49t308.5 19h108q124 0 226.5 -10t176 -27t130.5 -42.5t92.5 -54.5t57.5 -64.5t31 -70t9 -73.5v-15h-557q-3 20 -9.5 33t-27 31.5t-67 28.5t-117.5 10h-2q-87 0 -135.5 -9.5
t-64 -24.5t-15.5 -42v-2q0 -24 15 -39.5t62 -27.5t128 -15l231 -6q148 -5 253.5 -22t173 -44.5t106 -71.5t53 -93.5t14.5 -119.5v-14q0 -47 -8 -85.5t-29.5 -78.5t-57.5 -71t-94.5 -58.5t-136.5 -46t-188 -29t-246 -10.5z" />
    <glyph glyph-name="uni015E" unicode="&#x15e;" horiz-adv-x="2121" 
d="M1145 -29h-187q-929 0 -929 541v20h639q2 -30 9.5 -54.5t32 -56t63.5 -53t110 -36.5t166 -15h18q95 0 164 8t108.5 21t63 32.5t30.5 38.5t7 44v2q0 33 -11.5 53.5t-47.5 40t-109.5 29.5t-190.5 14l-282 8q-748 20 -748 459v18q0 79 22.5 144t82 126.5t156 103t253 66.5
t363.5 25h182q926 0 926 -481v-16h-633q-2 21 -8.5 38.5t-29.5 41.5t-60 40.5t-107 28.5t-164 12h-20q-89 0 -152 -6.5t-98 -16t-55 -25t-25.5 -30t-5.5 -34.5v-2q0 -25 12 -43.5t45.5 -35.5t102 -26.5t172.5 -11.5l274 -6q432 -12 618.5 -119.5t186.5 -339.5v-29
q0 -84 -20.5 -153t-82 -139.5t-162.5 -118t-274 -77.5t-405 -30zM719 -530v188h223q74 0 74 45t-74 45h-145v252h282v-100q97 0 167 -10t113.5 -27t69 -44t35 -57t9.5 -71v-6q0 -38 -9.5 -67.5t-36 -58t-70 -47.5t-114.5 -30.5t-166 -11.5h-358z" />
    <glyph glyph-name="uni015F" unicode="&#x15f;" horiz-adv-x="1667" 
d="M874 -31h-112q-137 0 -249 14.5t-187 37.5t-131.5 57t-87.5 67.5t-50 74.5t-24.5 73t-5.5 67v15h567q0 -20 7 -39t28 -43t70 -38.5t122 -14.5h4q71 0 118.5 7.5t70 21.5t31 28.5t8.5 34.5v4q0 29 -14 46t-61.5 29t-135.5 15l-234 6q-569 20 -569 346v13q0 59 16.5 105.5
t63.5 92.5t125 76t209.5 49t308.5 19h108q124 0 226.5 -10t176 -27t130.5 -42.5t92.5 -54.5t57.5 -64.5t31 -70t9 -73.5v-15h-557q-3 20 -9.5 33t-27 31.5t-67 28.5t-117.5 10h-2q-87 0 -135.5 -9.5t-64 -24.5t-15.5 -42v-2q0 -24 15 -39.5t62 -27.5t128 -15l231 -6
q148 -5 253.5 -22t173 -44.5t106 -71.5t53 -93.5t14.5 -119.5v-14q0 -47 -8 -85.5t-29.5 -78.5t-57.5 -71t-94.5 -58.5t-136.5 -46t-188 -29t-246 -10.5zM453 -530v188h223q74 0 74 45t-74 45h-146v252h283v-100q97 0 167 -10t113 -27t69 -44t35 -57t9 -71v-6
q0 -38 -9.5 -67.5t-36 -58t-69.5 -47.5t-114 -30.5t-166 -11.5h-358z" />
    <glyph glyph-name="Scaron" unicode="&#x160;" horiz-adv-x="2121" 
d="M1145 -29h-187q-929 0 -929 541v20h639q2 -30 9.5 -54.5t32 -56t63.5 -53t110 -36.5t166 -15h18q95 0 164 8t108.5 21t63 32.5t30.5 38.5t7 44v2q0 33 -11.5 53.5t-47.5 40t-109.5 29.5t-190.5 14l-282 8q-748 20 -748 459v18q0 79 22.5 144t82 126.5t156 103t253 66.5
t363.5 25h182q926 0 926 -481v-16h-633q-2 21 -8.5 38.5t-29.5 41.5t-60 40.5t-107 28.5t-164 12h-20q-89 0 -152 -6.5t-98 -16t-55 -25t-25.5 -30t-5.5 -34.5v-2q0 -25 12 -43.5t45.5 -35.5t102 -26.5t172.5 -11.5l274 -6q432 -12 618.5 -119.5t186.5 -339.5v-29
q0 -84 -20.5 -153t-82 -139.5t-162.5 -118t-274 -77.5t-405 -30zM754 1616l-338 317h499l127 -118l125 118h494l-330 -317h-577z" />
    <glyph glyph-name="scaron" unicode="&#x161;" horiz-adv-x="1667" 
d="M874 -31h-112q-137 0 -249 14.5t-187 37.5t-131.5 57t-87.5 67.5t-50 74.5t-24.5 73t-5.5 67v15h567q0 -20 7 -39t28 -43t70 -38.5t122 -14.5h4q71 0 118.5 7.5t70 21.5t31 28.5t8.5 34.5v4q0 29 -14 46t-61.5 29t-135.5 15l-234 6q-569 20 -569 346v13q0 59 16.5 105.5
t63.5 92.5t125 76t209.5 49t308.5 19h108q124 0 226.5 -10t176 -27t130.5 -42.5t92.5 -54.5t57.5 -64.5t31 -70t9 -73.5v-15h-557q-3 20 -9.5 33t-27 31.5t-67 28.5t-117.5 10h-2q-87 0 -135.5 -9.5t-64 -24.5t-15.5 -42v-2q0 -24 15 -39.5t62 -27.5t128 -15l231 -6
q148 -5 253.5 -22t173 -44.5t106 -71.5t53 -93.5t14.5 -119.5v-14q0 -47 -8 -85.5t-29.5 -78.5t-57.5 -71t-94.5 -58.5t-136.5 -46t-188 -29t-246 -10.5zM532 1194l-313 330h483l119 -133l119 133h479l-311 -330h-576z" />
    <glyph glyph-name="Tcommaaccent" unicode="&#x162;" horiz-adv-x="2000" 
d="M1161 -606h-266q57 104 72 188h-232v326h529v-256q0 -97 -103 -258zM709 0v1108h-658v416h1897v-416h-658v-1108h-581z" />
    <glyph glyph-name="tcommaaccent" unicode="&#x163;" horiz-adv-x="1052" 
d="M827 -606h-266q57 104 72 188h-232v326h529v-256q0 -97 -103 -258zM1001 0h-471q-292 0 -292 313v451h-211v338h211v321h553v-321h210v-338h-210v-326q0 -54 17.5 -75t74.5 -21h118v-342z" />
    <glyph glyph-name="Tcaron" unicode="&#x164;" horiz-adv-x="2000" 
d="M709 0v1108h-658v416h1897v-416h-658v-1108h-581zM715 1616l-338 317h500l127 -118l124 118h494l-330 -317h-577z" />
    <glyph glyph-name="tcaron" unicode="&#x165;" horiz-adv-x="1052" 
d="M1001 0h-471q-292 0 -292 313v451h-211v338h211v321h553v-321h210v-338h-210v-326q0 -54 17.5 -75t74.5 -21h118v-342zM846 1178l28 346h420l-57 -346h-391z" />
    <glyph glyph-name="Tbar" unicode="&#x166;" horiz-adv-x="2000" 
d="M1772 582h-1543v290h1543v-290zM709 0v1108h-658v416h1897v-416h-658v-1108h-581z" />
    <glyph glyph-name="tbar" unicode="&#x167;" horiz-adv-x="1052" 
d="M1001 330v-330h-471q-292 0 -292 313v144h-211v239h211v95h-211v311h211v321h553v-321h210v-311h-210v-95h210v-239h-210v-29q0 -55 17.5 -76.5t74.5 -21.5h118z" />
    <glyph glyph-name="Utilde" unicode="&#x168;" horiz-adv-x="2260" 
d="M82 797v727h584v-682q0 -61 11 -114.5t43 -109.5t82 -95.5t135 -65t196 -25.5q109 0 193 25.5t134.5 65t82 95.5t43 109.5t11.5 114.5v682h582v-727q0 -70 -10 -139t-38.5 -152.5t-74 -156.5t-124 -143t-180 -120t-250 -80.5t-326.5 -30.5h-82q-184 0 -335 30.5t-254 80
t-181.5 120.5t-123 143t-72.5 156.5t-37 152.5t-9 139zM1401 1624h-10q-66 0 -119 11.5t-158 47.5q-85 31 -123 31q-37 0 -37 -43v-59h-329v174q0 36 9.5 67.5t32.5 63.5t71.5 51t117.5 19h8q20 0 37.5 -1t37.5 -4.5t32.5 -5.5t38.5 -9t37.5 -10.5t46.5 -14t51 -15.5
q95 -31 121 -31q34 0 34 41v60h330v-162q0 -39 -8 -71t-30 -66.5t-70.5 -54t-120.5 -19.5z" />
    <glyph glyph-name="utilde" unicode="&#x169;" horiz-adv-x="1816" 
d="M1735 1102v-1102h-553v197q-222 -222 -559 -222h-15q-118 0 -212 28t-151.5 72t-96 102.5t-53.5 115t-15 113.5v696h559v-527q0 -114 61 -183.5t193 -69.5q135 0 211 75.5t76 192.5v512h555zM1169 1198h-8q-58 0 -111 12t-159 47q-95 29 -115 29q-33 0 -33 -43v-55h-325
v166q0 36 9 67t31.5 62.5t70 50t114.5 18.5h8q64 0 113.5 -11t159.5 -46l35 -12.5t30.5 -10.5t22.5 -5.5t24 -2.5q31 0 31 41v60h328v-156q0 -211 -226 -211z" />
    <glyph glyph-name="Umacron" unicode="&#x16a;" horiz-adv-x="2260" 
d="M82 797v727h584v-682q0 -61 11 -114.5t43 -109.5t82 -95.5t135 -65t196 -25.5q109 0 193 25.5t134.5 65t82 95.5t43 109.5t11.5 114.5v682h582v-727q0 -70 -10 -139t-38.5 -152.5t-74 -156.5t-124 -143t-180 -120t-250 -80.5t-326.5 -30.5h-82q-184 0 -335 30.5t-254 80
t-181.5 120.5t-123 143t-72.5 156.5t-37 152.5t-9 139zM649 1632v271h961v-271h-961z" />
    <glyph glyph-name="umacron" unicode="&#x16b;" horiz-adv-x="1816" 
d="M1735 1102v-1102h-553v197q-222 -222 -559 -222h-15q-118 0 -212 28t-151.5 72t-96 102.5t-53.5 115t-15 113.5v696h559v-527q0 -114 61 -183.5t193 -69.5q135 0 211 75.5t76 192.5v512h555zM444 1214v265h926v-265h-926z" />
    <glyph glyph-name="Ubreve" unicode="&#x16c;" horiz-adv-x="2260" 
d="M82 797v727h584v-682q0 -61 11 -114.5t43 -109.5t82 -95.5t135 -65t196 -25.5q109 0 193 25.5t134.5 65t82 95.5t43 109.5t11.5 114.5v682h582v-727q0 -70 -10 -139t-38.5 -152.5t-74 -156.5t-124 -143t-180 -120t-250 -80.5t-326.5 -30.5h-82q-184 0 -335 30.5t-254 80
t-181.5 120.5t-123 143t-72.5 156.5t-37 152.5t-9 139zM1174 1602h-82q-114 0 -201 26.5t-135 64.5t-78.5 88t-39.5 90t-9 79v4h375q0 -12 5 -26.5t17.5 -32.5t41 -30t67.5 -12t66.5 12t39.5 30t16.5 32.5t4.5 26.5h368v-4q0 -37 -12 -78.5t-44 -90.5t-81 -88t-132 -65
t-187 -26z" />
    <glyph glyph-name="ubreve" unicode="&#x16d;" horiz-adv-x="1816" 
d="M1735 1102v-1102h-553v197q-222 -222 -559 -222h-15q-118 0 -212 28t-151.5 72t-96 102.5t-53.5 115t-15 113.5v696h559v-527q0 -114 61 -183.5t193 -69.5q135 0 211 75.5t76 192.5v512h555zM1403 1524v-4q0 -37 -12.5 -78t-45 -88.5t-81.5 -84.5t-130.5 -62t-183.5 -25
h-82q-111 0 -196.5 25t-133.5 61.5t-77.5 85t-39 88t-9.5 78.5v4h370q0 -13 4.5 -27.5t17 -32t40 -28.5t67.5 -11q69 0 98 33.5t29 65.5h365z" />
    <glyph glyph-name="Uring" unicode="&#x16e;" horiz-adv-x="2260" 
d="M82 797v727h584v-682q0 -61 11 -114.5t43 -109.5t82 -95.5t135 -65t196 -25.5q109 0 193 25.5t134.5 65t82 95.5t43 109.5t11.5 114.5v682h582v-727q0 -70 -10 -139t-38.5 -152.5t-74 -156.5t-124 -143t-180 -120t-250 -80.5t-326.5 -30.5h-82q-184 0 -335 30.5t-254 80
t-181.5 120.5t-123 143t-72.5 156.5t-37 152.5t-9 139zM723 1821q0 243 410 243q403 0 403 -243q0 -54 -19 -95.5t-63 -76.5t-125 -53.5t-196 -18.5q-410 0 -410 244zM975 1823q0 -94 158 -94q153 0 153 94q0 90 -153 90q-158 0 -158 -90z" />
    <glyph glyph-name="uring" unicode="&#x16f;" horiz-adv-x="1816" 
d="M1735 1102v-1102h-553v197q-222 -222 -559 -222h-15q-118 0 -212 28t-151.5 72t-96 102.5t-53.5 115t-15 113.5v696h559v-527q0 -114 61 -183.5t193 -69.5q135 0 211 75.5t76 192.5v512h555zM504 1423q0 52 20 93.5t65 76t126 53.5t194 19q400 0 400 -242
q0 -243 -400 -243q-116 0 -197.5 18.5t-125.5 53.5t-63 76.5t-19 94.5zM756 1423q0 -43 38 -67.5t115 -24.5q75 0 112.5 24.5t37.5 67.5q0 90 -150 90q-153 0 -153 -90z" />
    <glyph glyph-name="Uhungarumlaut" unicode="&#x170;" horiz-adv-x="2260" 
d="M82 797v727h584v-682q0 -61 11 -114.5t43 -109.5t82 -95.5t135 -65t196 -25.5q109 0 193 25.5t134.5 65t82 95.5t43 109.5t11.5 114.5v682h582v-727q0 -70 -10 -139t-38.5 -152.5t-74 -156.5t-124 -143t-180 -120t-250 -80.5t-326.5 -30.5h-82q-184 0 -335 30.5t-254 80
t-181.5 120.5t-123 143t-72.5 156.5t-37 152.5t-9 139zM1176 1616l120 317h502l-133 -317h-489zM598 1616l109 317h501l-121 -317h-489z" />
    <glyph glyph-name="uhungarumlaut" unicode="&#x171;" horiz-adv-x="1816" 
d="M1735 1102v-1102h-553v197q-222 -222 -559 -222h-15q-118 0 -212 28t-151.5 72t-96 102.5t-53.5 115t-15 113.5v696h559v-527q0 -114 61 -183.5t193 -69.5q135 0 211 75.5t76 192.5v512h555zM950 1194l129 330h486l-142 -330h-473zM391 1194l115 330h483l-127 -330h-471z
" />
    <glyph glyph-name="Uogonek" unicode="&#x172;" horiz-adv-x="2260" 
d="M1653 -385h-338q-157 0 -229 36.5t-72 110.5v7q0 77 91.5 125.5t287.5 95.5q-108 -15 -217 -15h-82q-184 0 -335 30.5t-254 80t-181.5 120.5t-123 143t-72.5 156.5t-37 152.5t-9 139v727h584v-682q0 -61 11 -114.5t43 -109.5t82 -95.5t135 -65t196 -25.5q109 0 193 25.5
t134.5 65t82 95.5t43 109.5t11.5 114.5v682h582v-727q0 -502 -496 -781q-90 -49 -127.5 -78.5t-37.5 -62.5q0 -43 69 -43h66v-217z" />
    <glyph glyph-name="uogonek" unicode="&#x173;" horiz-adv-x="1816" 
d="M1106 -238v7q0 80 95.5 131.5t299.5 99.5h234q-63 -41 -93 -69t-30 -56q0 -43 67 -43h56v-217h-328q-157 0 -229 36.5t-72 110.5zM1735 1102v-1102h-553v197q-222 -222 -559 -222h-15q-118 0 -212 28t-151.5 72t-96 102.5t-53.5 115t-15 113.5v696h559v-527
q0 -114 61 -183.5t193 -69.5q135 0 211 75.5t76 192.5v512h555z" />
    <glyph glyph-name="Wcircumflex" unicode="&#x174;" horiz-adv-x="3143" 
d="M1278 0h-709l-594 1524h648l346 -1006l305 1006h655l309 -989l336 989h596l-594 -1524h-673l-318 963zM1878 1933l336 -317h-500l-127 119l-125 -119h-493l331 317h578z" />
    <glyph glyph-name="wcircumflex" unicode="&#x175;" horiz-adv-x="2496" 
d="M1042 0h-628l-434 1102h579l215 -694l211 694h574l215 -692l211 692h532l-410 -1102h-622l-221 668zM1559 1524l313 -332h-486l-118 135l-119 -135h-477l311 332h576z" />
    <glyph glyph-name="Ycircumflex" unicode="&#x176;" horiz-adv-x="2148" 
d="M793 0v573l-834 951h696l445 -527l452 527h637l-815 -955v-569h-581zM1382 1933l336 -317h-499l-127 119l-125 -119h-494l332 317h577z" />
    <glyph glyph-name="ycircumflex" unicode="&#x177;" horiz-adv-x="1693" 
d="M244 -385v340h250q51 0 51 35v2q0 24 -47 110l-521 1000h594l308 -709l284 709h553l-530 -1149q-81 -177 -179.5 -257.5t-244.5 -80.5h-518zM1157 1524l313 -332h-485l-119 135l-118 -135h-478l312 332h575z" />
    <glyph glyph-name="Ydieresis" unicode="&#x178;" horiz-adv-x="2148" 
d="M793 0v573l-834 951h696l445 -527l452 527h637l-815 -955v-569h-581zM1647 1933v-317h-502v317h502zM1047 1933v-317h-504v317h504z" />
    <glyph glyph-name="Zacute" unicode="&#x179;" horiz-adv-x="1953" 
d="M72 1524h1812v-310l-999 -798h1009v-416h-1835v311l971 811h-958v402zM676 1616l162 317h571l-207 -317h-526z" />
    <glyph glyph-name="zacute" unicode="&#x17a;" horiz-adv-x="1540" 
d="M1495 0h-1450v299l733 477h-733v326h1448v-293l-756 -471h758v-338zM500 1194l182 330h549l-227 -330h-504z" />
    <glyph glyph-name="Zdotaccent" unicode="&#x17b;" horiz-adv-x="1953" 
d="M72 1524h1812v-310l-999 -798h1009v-416h-1835v311l971 811h-958v402zM1253 1946v-330h-555v330h555z" />
    <glyph glyph-name="zdotaccent" unicode="&#x17c;" horiz-adv-x="1540" 
d="M1495 0h-1450v299l733 477h-733v326h1448v-293l-756 -471h758v-338zM1047 1524v-330h-555v330h555z" />
    <glyph glyph-name="Zcaron" unicode="&#x17d;" horiz-adv-x="1953" 
d="M72 1524h1812v-310l-999 -798h1009v-416h-1835v311l971 811h-958v402zM690 1616l-338 317h500l127 -118l125 118h493l-329 -317h-578z" />
    <glyph glyph-name="zcaron" unicode="&#x17e;" horiz-adv-x="1540" 
d="M1495 0h-1450v299l733 477h-733v326h1448v-293l-756 -471h758v-338zM487 1194l-313 330h483l119 -133l119 133h479l-311 -330h-576z" />
    <glyph glyph-name="uni0192" unicode="&#x192;" horiz-adv-x="1114" 
d="M1053 655h-254l-54 -1044h-552l51 1044h-201v340h217l10 215q4 70 24 122.5t65 98t127.5 69.5t201.5 24h365v-316h-154q-44 0 -58.5 -17.5t-19.5 -62.5l-6 -133h238v-340z" />
    <glyph glyph-name="Aringacute" unicode="&#x1fa;" horiz-adv-x="2267" 
d="M1358 627l-256 524l-250 -524h506zM1663 0l-119 246h-870l-117 -246h-590l754 1524h782l797 -1524h-637zM874 2130l183 330h549l-228 -330h-504zM709 1839q0 244 409 244q404 0 404 -244q0 -54 -19 -95.5t-63.5 -76.5t-125.5 -53.5t-196 -18.5q-409 0 -409 244zM961 1841
q0 -94 157 -94q154 0 154 94q0 90 -154 90q-157 0 -157 -90z" />
    <glyph glyph-name="aringacute" unicode="&#x1fb;" horiz-adv-x="1732" 
d="M1067 473v47l-369 -65q-73 -12 -104 -33t-31 -62v-2q0 -46 40.5 -79t133.5 -33q147 0 238.5 68t91.5 159zM1077 147q-167 -167 -516 -167h-22q-133 0 -234.5 29.5t-160 80.5t-87 112.5t-28.5 131.5v24q0 143 103.5 221.5t342.5 98.5l531 47q34 4 47.5 16.5t13.5 36.5
q0 18 -7.5 31t-30.5 26t-73.5 20t-128.5 7h-8q-67 0 -115.5 -9t-72 -19.5t-38.5 -30t-17 -27.5t-5 -26h-516v12q0 37 4 67t20.5 70t45 70t81.5 62t126 52.5t183 33.5t247 13h115q143 0 257 -12t190 -31.5t131 -49.5t84.5 -58.5t46.5 -67t21.5 -68t4.5 -67.5v-407
q0 -25 9.5 -36t37.5 -11h59v-322h-463q-73 0 -119.5 38t-58.5 109zM582 1718l182 330h549l-228 -330h-503zM420 1425q0 52 20 93.5t65 76t126 53.5t194 19q400 0 400 -242q0 -243 -400 -243q-116 0 -197.5 18.5t-125.5 53.5t-63 76.5t-19 94.5zM672 1425q0 -43 38 -67.5
t115 -24.5q75 0 112.5 24.5t37.5 67.5q0 91 -150 91q-153 0 -153 -91z" />
    <glyph glyph-name="AEacute" unicode="&#x1fc;" horiz-adv-x="3104" 
d="M1765 1616l162 317h572l-207 -317h-527zM1368 618v545l-391 -545h391zM1368 0v238h-666l-170 -238h-585l1106 1524h1966v-373h-1077v-190h1056v-371h-1056v-209h1093v-381h-1667z" />
    <glyph glyph-name="aeacute" unicode="&#x1fd;" horiz-adv-x="2828" 
d="M1133 1194l182 330h549l-228 -330h-503zM1927 862h-4q-149 0 -222 -43t-93 -123h635q-18 82 -92.5 124t-223.5 42zM735 244q145 0 234.5 68.5t89.5 160.5v47l-365 -63q-70 -12 -101.5 -33.5t-31.5 -61.5v-2q0 -48 41.5 -82t132.5 -34zM2789 401v-4q0 -37 -6.5 -72
t-28 -79.5t-56.5 -81.5t-97 -73.5t-143.5 -62t-203 -41.5t-269.5 -16h-113q-498 0 -701 232q-200 -223 -577 -223h-23q-147 0 -256 29.5t-169 80.5t-88.5 112t-28.5 132v24q0 144 104 223t340 99l539 47q28 4 37.5 16t9.5 37v2q0 22 -13.5 37t-69 28t-155.5 13h-10
q-65 0 -112.5 -8.5t-71.5 -20t-37.5 -28t-16 -28t-2.5 -25.5h-514v12q0 28 2 49.5t9.5 52.5t21 55.5t39 53t61 50t89 42.5t120 34.5t158 22t199.5 8.5h112q362 0 512 -102q161 102 486 102h116q118 0 218 -12t176 -33t137.5 -52t104.5 -65.5t75 -78.5t50.5 -85.5t30 -90.5
t15.5 -91t4 -90v-61h-1191q13 -93 93 -148t238 -55h2q76 0 135 12t90.5 28t52 36.5t26.5 34t6 22.5h544z" />
    <glyph glyph-name="Oslashacute" unicode="&#x1fe;" horiz-adv-x="2418" 
d="M946 1622l162 311h571l-206 -311h-527zM1257 -27h-94q-374 0 -614 97l-90 -70h-471q19 16 90 70q31 23 99 76t97 75q-229 195 -229 512v62q0 70 9.5 134t39 142.5t78.5 143.5t135 129t200 108t282 71t374 27h94q354 0 603 -94l88 68h473l-283 -219q236 -198 236 -510v-62
q0 -69 -9.5 -132.5t-40 -142t-79.5 -144.5t-135.5 -131t-200 -110t-281 -72.5t-371.5 -27.5zM641 784v-26q0 -119 64 -205l745 584q-99 12 -242 12q-134 0 -237 -22t-164 -56.5t-99.5 -84t-52.5 -98t-14 -104.5zM1208 379q132 0 234 22.5t164.5 59t102 87t54.5 101t15 107.5
v28q0 117 -60 199l-755 -590q119 -14 245 -14z" />
    <glyph glyph-name="oslashacute" unicode="&#x1ff;" horiz-adv-x="1898" 
d="M694 1198l178 326h549l-223 -326h-504zM1022 -31h-152q-268 0 -460 80l-76 -49h-363l242 168q-174 133 -174 373v32q0 54 9 104.5t34 108t64 106t104.5 94t150.5 77.5t207 51t269 19h153q261 0 457 -78l69 47h369l-235 -162q170 -141 170 -365v-36q0 -56 -7.5 -106
t-30 -109.5t-59.5 -108t-101.5 -96t-150 -79.5t-211 -51.5t-278.5 -19.5zM592 563v-8q0 -63 20 -113l521 361q-81 24 -181 24h-4q-83 0 -147 -16t-102.5 -41.5t-63.5 -61t-34 -70.5t-9 -75zM950 279h2q83 0 147 17.5t103 45t64 65t34 73.5t9 75v8q0 61 -17 101l-518 -361
q70 -24 176 -24z" />
    <glyph glyph-name="uni0218" unicode="&#x218;" horiz-adv-x="2121" 
d="M1214 -612h-266q57 104 72 188h-232v326h529v-256q0 -97 -103 -258zM1145 -29h-187q-929 0 -929 541v20h639q2 -30 9.5 -54.5t32 -56t63.5 -53t110 -36.5t166 -15h18q95 0 164 8t108.5 21t63 32.5t30.5 38.5t7 44v2q0 33 -11.5 53.5t-47.5 40t-109.5 29.5t-190.5 14
l-282 8q-748 20 -748 459v18q0 79 22.5 144t82 126.5t156 103t253 66.5t363.5 25h182q926 0 926 -481v-16h-633q-2 21 -8.5 38.5t-29.5 41.5t-60 40.5t-107 28.5t-164 12h-20q-89 0 -152 -6.5t-98 -16t-55 -25t-25.5 -30t-5.5 -34.5v-2q0 -25 12 -43.5t45.5 -35.5t102 -26.5
t172.5 -11.5l274 -6q432 -12 618.5 -119.5t186.5 -339.5v-29q0 -84 -20.5 -153t-82 -139.5t-162.5 -118t-274 -77.5t-405 -30z" />
    <glyph glyph-name="uni0219" unicode="&#x219;" horiz-adv-x="1667" 
d="M991 -610h-266q57 104 72 188h-232v326h529v-256q0 -97 -103 -258zM874 -31h-112q-137 0 -249 14.5t-187 37.5t-131.5 57t-87.5 67.5t-50 74.5t-24.5 73t-5.5 67v15h567q0 -20 7 -39t28 -43t70 -38.5t122 -14.5h4q71 0 118.5 7.5t70 21.5t31 28.5t8.5 34.5v4q0 29 -14 46
t-61.5 29t-135.5 15l-234 6q-569 20 -569 346v13q0 59 16.5 105.5t63.5 92.5t125 76t209.5 49t308.5 19h108q124 0 226.5 -10t176 -27t130.5 -42.5t92.5 -54.5t57.5 -64.5t31 -70t9 -73.5v-15h-557q-3 20 -9.5 33t-27 31.5t-67 28.5t-117.5 10h-2q-87 0 -135.5 -9.5
t-64 -24.5t-15.5 -42v-2q0 -24 15 -39.5t62 -27.5t128 -15l231 -6q148 -5 253.5 -22t173 -44.5t106 -71.5t53 -93.5t14.5 -119.5v-14q0 -47 -8 -85.5t-29.5 -78.5t-57.5 -71t-94.5 -58.5t-136.5 -46t-188 -29t-246 -10.5z" />
    <glyph glyph-name="uni021A" unicode="&#x21a;" horiz-adv-x="2000" 
d="M1161 -606h-266q57 104 72 188h-232v326h529v-256q0 -97 -103 -258zM709 0v1108h-658v416h1897v-416h-658v-1108h-581z" />
    <glyph glyph-name="uni021B" unicode="&#x21b;" horiz-adv-x="1052" 
d="M827 -606h-266q57 104 72 188h-232v326h529v-256q0 -97 -103 -258zM1001 0h-471q-292 0 -292 313v451h-211v338h211v321h553v-321h210v-338h-210v-326q0 -54 17.5 -75t74.5 -21h118v-342z" />
    <glyph glyph-name="uni0237" unicode="&#x237;" horiz-adv-x="720" 
d="M-57 -55h73q38 0 52 14.5t14 60.5v1082h557v-1184q0 -158 -63.5 -230.5t-165.5 -72.5h-467v330z" />
    <glyph glyph-name="circumflex" unicode="&#x2c6;" 
d="M1010 1524l313 -332h-485l-119 135l-119 -135h-477l311 332h576z" />
    <glyph glyph-name="caron" unicode="&#x2c7;" 
d="M436 1194l-313 330h483l119 -133l119 133h479l-311 -330h-576z" />
    <glyph glyph-name="breve" unicode="&#x2d8;" 
d="M1219 1524v-4q0 -37 -12.5 -78t-45 -88.5t-81.5 -84.5t-130.5 -62t-183.5 -25h-82q-111 0 -197 25t-133.5 61.5t-77.5 85t-39.5 88t-9.5 78.5v4h371q0 -13 4.5 -27.5t17 -32t40 -28.5t67.5 -11q69 0 98 33.5t29 65.5h365z" />
    <glyph glyph-name="dotaccent" unicode="&#x2d9;" 
d="M999 1524v-330h-555v330h555z" />
    <glyph glyph-name="ring" unicode="&#x2da;" 
d="M322 1423q0 52 20 93.5t65 76t126 53.5t194 19q399 0 399 -242q0 -243 -399 -243q-116 0 -197.5 18.5t-125.5 53.5t-63 76.5t-19 94.5zM573 1423q0 -43 38.5 -67.5t115.5 -24.5q75 0 112.5 24.5t37.5 67.5q0 90 -150 90q-154 0 -154 -90z" />
    <glyph glyph-name="ogonek" unicode="&#x2db;" 
d="M401 -238v7q0 80 95.5 131.5t300.5 99.5h233q-63 -41 -93 -69t-30 -56q0 -43 68 -43h55v-217h-328q-157 0 -229 36.5t-72 110.5z" />
    <glyph glyph-name="tilde" unicode="&#x2dc;" 
d="M985 1198h-8q-58 0 -111 12t-159 47q-95 29 -115 29q-33 0 -33 -43v-55h-326v166q0 36 9 67t32 62.5t70 50t115 18.5h8q64 0 113 -11t159 -46q14 -4 35.5 -12t31 -11t22.5 -5.5t24 -2.5q31 0 31 41v60h327v-156q0 -211 -225 -211z" />
    <glyph glyph-name="hungarumlaut" unicode="&#x2dd;" 
d="M696 1194l129 330h486l-142 -330h-473zM137 1194l115 330h483l-127 -330h-471z" />
    <glyph glyph-name="Wgrave" unicode="&#x1e80;" horiz-adv-x="3143" 
d="M1278 0h-709l-594 1524h648l346 -1006l305 1006h655l309 -989l336 989h596l-594 -1524h-673l-318 963zM1694 1933l161 -317h-526l-207 317h572z" />
    <glyph glyph-name="wgrave" unicode="&#x1e81;" horiz-adv-x="2496" 
d="M1042 0h-628l-434 1102h579l215 -694l211 694h574l215 -692l211 692h532l-410 -1102h-622l-221 668zM1513 1194h-505l-228 330h553z" />
    <glyph glyph-name="Wacute" unicode="&#x1e82;" horiz-adv-x="3143" 
d="M1278 0h-709l-594 1524h648l346 -1006l305 1006h655l309 -989l336 989h596l-594 -1524h-673l-318 963zM1339 1616l162 317h572l-207 -317h-527z" />
    <glyph glyph-name="wacute" unicode="&#x1e83;" horiz-adv-x="2496" 
d="M1042 0h-628l-434 1102h579l215 -694l211 694h574l215 -692l211 692h532l-410 -1102h-622l-221 668zM1028 1194l182 330h549l-227 -330h-504z" />
    <glyph glyph-name="Wdieresis" unicode="&#x1e84;" horiz-adv-x="3143" 
d="M1278 0h-709l-594 1524h648l346 -1006l305 1006h655l309 -989l336 989h596l-594 -1524h-673l-318 963zM2144 1933v-317h-502v317h502zM1544 1933v-317h-504v317h504z" />
    <glyph glyph-name="wdieresis" unicode="&#x1e85;" horiz-adv-x="2496" 
d="M1042 0h-628l-434 1102h579l215 -694l211 694h574l215 -692l211 692h532l-410 -1102h-622l-221 668zM1802 1524v-330h-487v330h487zM1221 1524v-330h-486v330h486z" />
    <glyph glyph-name="Ygrave" unicode="&#x1ef2;" horiz-adv-x="2148" 
d="M793 0v573l-834 951h696l445 -527l452 527h637l-815 -955v-569h-581zM1210 1933l162 -317h-526l-207 317h571z" />
    <glyph glyph-name="ygrave" unicode="&#x1ef3;" horiz-adv-x="1693" 
d="M244 -385v340h250q51 0 51 35v2q0 24 -47 110l-521 1000h594l308 -709l284 709h553l-530 -1149q-81 -177 -179.5 -257.5t-244.5 -80.5h-518zM1126 1194h-505l-228 330h553z" />
    <glyph glyph-name="uni2009" unicode="&#x2009;" horiz-adv-x="43" 
 />
    <glyph glyph-name="endash" unicode="&#x2013;" horiz-adv-x="1884" 
d="M68 756h1749v-291h-1749v291z" />
    <glyph glyph-name="emdash" unicode="&#x2014;" horiz-adv-x="2811" 
d="M68 756h2676v-291h-2676v291z" />
    <glyph glyph-name="quoteleft" unicode="&#x2018;" horiz-adv-x="671" 
d="M178 1524h285q-66 -119 -82 -213h229v-338h-547v274q0 63 35.5 140t79.5 137z" />
    <glyph glyph-name="quoteright" unicode="&#x2019;" horiz-adv-x="671" 
d="M496 973h-287q70 126 82 213h-228v338h547v-275q0 -63 -35 -140t-79 -136z" />
    <glyph glyph-name="quotesinglbase" unicode="&#x201a;" horiz-adv-x="671" 
d="M496 -213h-287q70 126 82 213h-228v338h547v-272q0 -64 -35 -142t-79 -137z" />
    <glyph glyph-name="quotedblleft" unicode="&#x201c;" horiz-adv-x="1292" 
d="M178 1524h285q-66 -119 -82 -213h229v-338h-547v274q0 63 35.5 140t79.5 137zM799 1524h284q-66 -119 -82 -213h230v-338h-547v274q0 63 35.5 140t79.5 137z" />
    <glyph glyph-name="quotedblright" unicode="&#x201d;" horiz-adv-x="1292" 
d="M496 973h-287q70 126 82 213h-228v338h547v-275q0 -63 -35 -140t-79 -136zM1116 973h-287q70 126 82 213h-227v338h547v-275q0 -63 -35.5 -139.5t-79.5 -136.5z" />
    <glyph glyph-name="quotedblbase" unicode="&#x201e;" horiz-adv-x="1292" 
d="M1116 -213h-287q70 126 82 213h-227v338h547v-272q0 -64 -35.5 -141.5t-79.5 -137.5zM496 -213h-287q70 126 82 213h-228v338h547v-272q0 -64 -35 -142t-79 -137z" />
    <glyph glyph-name="dagger" unicode="&#x2020;" horiz-adv-x="1202" 
d="M340 0v846h-293v373h293v305h520v-305h295v-373h-295v-846h-520z" />
    <glyph glyph-name="daggerdbl" unicode="&#x2021;" horiz-adv-x="1208" 
d="M350 289h-297v350h297v254h-297v352h297v279h510v-279h295v-352h-295v-254h295v-350h-295v-289h-510v289z" />
    <glyph glyph-name="bullet" unicode="&#x2022;" horiz-adv-x="958" 
d="M909 676q0 -183 -122 -300.5t-308 -117.5q-185 0 -307.5 117.5t-122.5 300.5q0 182 123 299t307 117q186 0 308 -117t122 -299z" />
    <glyph glyph-name="ellipsis" unicode="&#x2026;" horiz-adv-x="2072" 
d="M641 399v-399h-578v399h578zM1325 399v-399h-577v399h577zM2009 399v-399h-577v399h577z" />
    <glyph glyph-name="perthousand" unicode="&#x2030;" horiz-adv-x="4290" 
d="M700 657h-45q-108 0 -198 16t-152 41.5t-109 62t-75 74.5t-45 82t-23 80.5t-6 73.5v33q0 37 6 73t23.5 79t45 80t75 72.5t109.5 60.5t151.5 40t197.5 15h45q108 0 197.5 -15t151 -40t109 -60.5t75 -72.5t45 -80t23.5 -79t6 -73v-33q0 -37 -6 -73.5t-23.5 -80.5t-45 -82
t-75 -74.5t-109 -62t-151 -41.5t-197.5 -16zM2099 1524h441l-1672 -1524h-440zM676 928q121 0 178 49t57 119v12q0 74 -54.5 120t-180.5 46q-123 0 -178.5 -46.5t-55.5 -119.5v-10q0 -71 57 -120.5t177 -49.5zM2318 -16h-49q-108 0 -197 16t-150.5 41.5t-109 62t-75 74.5
t-45 82t-23.5 80.5t-6 73.5v32q0 38 6 74t23.5 79.5t45 80t75 72.5t109.5 61t151.5 40t197.5 15h45q108 0 197.5 -15t151.5 -40t109.5 -60.5t75.5 -73t45.5 -80.5t23.5 -79t6 -74v-32q0 -37 -6 -73.5t-23.5 -80.5t-45 -82t-75 -74.5t-109 -62t-151 -41.5t-197.5 -16z
M3637 -16h-47q-108 0 -197.5 16t-151.5 41.5t-109.5 62t-75 74.5t-45 82t-23.5 80.5t-6 73.5v32q0 45 9.5 87.5t32 92.5t67.5 91.5t109.5 76.5t165 54.5t226.5 19.5h45q125 0 225 -19.5t164 -54.5t108.5 -76.5t67 -91.5t32 -92.5t9.5 -87.5v-32q0 -37 -6 -73.5t-23 -80.5
t-44.5 -82t-75 -74.5t-109 -62t-151 -41.5t-197.5 -16zM2294 254q121 0 178 49t57 119v14q0 73 -56.5 118.5t-178.5 45.5q-126 0 -181 -45.5t-55 -118.5v-10q0 -74 57 -123t179 -49zM3613 254q121 0 178 49t57 119v14q0 73 -56.5 118.5t-178.5 45.5q-125 0 -179.5 -45.5
t-54.5 -118.5v-10q0 -74 55.5 -123t178.5 -49z" />
    <glyph glyph-name="uni2032" unicode="&#x2032;" horiz-adv-x="591" 
d="M567 1524l-106 -537h-436l106 537h436z" />
    <glyph glyph-name="uni2033" unicode="&#x2033;" horiz-adv-x="1107" 
d="M565 1524l-106 -537h-434l106 537h434zM977 987h-434l106 537h434z" />
    <glyph glyph-name="guilsinglleft" unicode="&#x2039;" horiz-adv-x="718" 
d="M684 233h-401l-260 355l262 348h405l-254 -348z" />
    <glyph glyph-name="guilsinglright" unicode="&#x203a;" horiz-adv-x="718" 
d="M438 233h-403l248 355l-254 348h405l262 -348z" />
    <glyph glyph-name="fraction" unicode="&#x2044;" horiz-adv-x="2078" 
d="M1673 1524h400l-1680 -1524h-387z" />
    <glyph glyph-name="Euro" unicode="&#x20ac;" horiz-adv-x="2377" 
d="M1321 -29h-82q-197 0 -358 34t-268.5 89t-187 131.5t-122.5 153.5t-65 164h-215v180h188v98h-188v180h215q23 86 66 161t122.5 148.5t187 125.5t268.5 84t357 32h82q176 0 324 -23.5t250 -62.5t182 -92.5t127.5 -108.5t78 -116t41.5 -111t11 -96v-24h-604q-3 13 -8 27
t-20 38.5t-35 46t-56.5 45.5t-81.5 41t-112.5 28t-147.5 11q-319 0 -420 -154h598v-180h-649q0 -5 -1 -16t-1 -19v-24q0 -7 1 -19.5t1 -19.5h649v-180h-594q104 -172 418 -172q81 0 149 12.5t113 30.5t81 44.5t55.5 48.5t34 50t18.5 40.5t8 27.5h604v-25q0 -48 -11 -99
t-41 -114t-77 -120t-127 -112t-182 -95t-250.5 -64.5t-325.5 -24.5z" />
    <glyph glyph-name="trademark" unicode="&#x2122;" horiz-adv-x="2277" 
d="M909 1284h-260v-493h-358v493h-260v240h878v-240zM985 791v733h483l142 -361l143 361h461v-733h-313v456l-193 -456h-221l-193 456v-456h-309z" />
    <glyph glyph-name="onethird" unicode="&#x2153;" horiz-adv-x="2263" 
d="M236 1188h-205v190q117 4 180 42t90 104h315v-754h-380v418zM1581 1524h399l-1679 -1524h-387zM1700 -14h-68q-134 0 -234.5 22t-153 53t-84 73.5t-39 73t-7.5 62.5v11h377q0 -7 2.5 -15.5t13 -21t28 -22t52 -16.5t80.5 -7q75 0 116.5 9.5t51.5 20.5t10 27v4
q0 22 -18.5 32.5t-69.5 10.5h-229v184h219q84 0 84 35v4q0 14 -10 22.5t-50 15.5t-112 7q-45 0 -78.5 -5.5t-50 -12.5t-26 -17t-11.5 -16t-2 -12h-365v10q0 17 2.5 33t13.5 42.5t30.5 49t56.5 47t87.5 41.5t129 28t174.5 11h70q136 0 235 -12t153.5 -29.5t86 -44.5t40.5 -51
t9 -55v-9q0 -54 -44.5 -88.5t-113.5 -42.5q84 -13 137.5 -60.5t53.5 -123.5v-8q0 -41 -11.5 -74.5t-46.5 -69.5t-93 -60.5t-159.5 -40t-236.5 -15.5z" />
    <glyph glyph-name="twothirds" unicode="&#x2154;" horiz-adv-x="2721" 
d="M1100 770h-1073v96q0 42 5.5 73t23 68t53 66.5t91 59t143.5 54t204 44.5q69 11 108 22.5t50.5 21.5t11.5 23v2q0 46 -144 46q-161 0 -161 -89h-373v9q0 274 510 274h39q126 0 219.5 -13t149 -34t89 -53.5t45 -65.5t11.5 -76v-10q0 -107 -106 -155t-378 -78
q-26 -4 -64.5 -9t-58 -7.5t-46 -7t-40 -7.5t-29 -7.5t-23.5 -9.5t-13 -12h756v-225zM2040 1524h399l-1679 -1524h-387zM2157 -14h-68q-134 0 -234.5 22t-153 53t-84 73.5t-39 73t-7.5 62.5v11h377q0 -7 2.5 -15.5t13 -21t28 -22t52 -16.5t80.5 -7q75 0 116.5 9.5t51.5 20.5
t10 27v4q0 22 -18.5 32.5t-69.5 10.5h-229v184h219q84 0 84 35v4q0 14 -10 22.5t-50 15.5t-112 7q-45 0 -78.5 -5.5t-50 -12.5t-26 -17t-11.5 -16t-2 -12h-365v10q0 17 2.5 33t13.5 42.5t30.5 49t56.5 47t87.5 41.5t129 28t174.5 11h69q114 0 202 -7.5t144 -22.5t93 -32
t55 -40.5t24.5 -44t6.5 -45.5v-9q0 -54 -44.5 -88.5t-113.5 -42.5q84 -13 137 -60.5t53 -123.5v-8q0 -29 -5.5 -53.5t-21 -51.5t-40.5 -49t-67.5 -42.5t-98 -34t-135.5 -21.5t-178 -8z" />
    <glyph glyph-name="oneeighth" unicode="&#x215b;" horiz-adv-x="2289" 
d="M236 1188h-205v190q117 4 180 42t90 104h315v-754h-380v418zM1581 1524h399l-1679 -1524h-387zM2247 567v-12q0 -61 -54.5 -102t-132.5 -54q90 -13 148.5 -57t58.5 -113v-16q0 -21 -4 -39.5t-17.5 -42.5t-36 -43.5t-64 -39t-97 -32.5t-138 -21.5t-184.5 -8.5h-49
q-142 0 -246.5 16t-159.5 38.5t-87.5 56t-40.5 59.5t-8 57v16q0 69 58 113t148 57q-80 13 -133 53.5t-53 102.5v12q0 25 6 45t23.5 45t54 43t91.5 34.5t143.5 25t203.5 8.5h49q99 0 178.5 -7t133 -18t93 -27.5t61.5 -33t35 -38t16.5 -39t3.5 -38.5zM1860 535v4
q0 16 -9.5 26.5t-47 18.5t-103.5 8q-65 0 -102 -8t-46.5 -18.5t-9.5 -26.5v-4q0 -17 9.5 -28t46.5 -19.5t102 -8.5q66 0 103.5 8.5t47 19.5t9.5 28zM1878 246v2q0 19 -11.5 31t-52.5 21t-114 9t-113.5 -9t-51.5 -21t-11 -31v-2q0 -14 7 -24.5t24.5 -20t54 -14.5t90.5 -5
q73 0 114 10t52.5 22.5t11.5 31.5z" />
    <glyph glyph-name="threeeighths" unicode="&#x215c;" horiz-adv-x="2682" 
d="M1970 1524h400l-1680 -1524h-387zM602 758h-67q-113 0 -202 14.5t-143 40.5t-91 55t-54 63.5t-23 59.5t-6 51v11h377q0 -7 2.5 -15.5t13 -21t28 -22t52 -16.5t80.5 -7q75 0 117 9.5t52 20.5t10 27v4q0 22 -19 32.5t-70 10.5h-229v185h219q84 0 84 34v4q0 14 -10 22.5
t-50 15.5t-112 7q-45 0 -78.5 -5.5t-50 -12.5t-26 -17t-11.5 -16t-2 -12h-364v10q0 17 2.5 33t13.5 42.5t30 49t56.5 47t87.5 41.5t128.5 28t174.5 11h70q136 0 235 -12t153.5 -29.5t86 -44.5t40.5 -51t9 -55v-9q0 -54 -44.5 -88.5t-113.5 -42.5q84 -13 137.5 -60.5
t53.5 -123.5v-8q0 -41 -11.5 -74.5t-46.5 -69.5t-93 -60.5t-159.5 -40t-236.5 -15.5zM2640 567v-12q0 -61 -54 -102t-132 -54q90 -13 148 -57t58 -113v-16q0 -21 -4 -39.5t-17.5 -42.5t-36 -43.5t-63.5 -39t-96.5 -32.5t-138 -21.5t-184.5 -8.5h-49q-142 0 -246.5 16
t-159.5 38.5t-88 56t-41 59.5t-8 57v16q0 69 58.5 113t148.5 57q-80 13 -133.5 53.5t-53.5 102.5v12q0 30 8 54t39.5 53t85.5 48.5t154 32.5t236 13h49q115 0 203.5 -8.5t143 -25t91 -34.5t53.5 -43t23 -45t6 -45zM2253 535v4q0 16 -9.5 26.5t-47 18.5t-103.5 8
q-65 0 -102 -8t-46.5 -18.5t-9.5 -26.5v-4q0 -17 9.5 -28t46.5 -19.5t102 -8.5q66 0 103.5 8.5t47 19.5t9.5 28zM2271 246v2q0 19 -11.5 31t-52.5 21t-114 9t-113.5 -9t-51.5 -21t-11 -31v-2q0 -14 7 -24.5t24.5 -20t54 -14.5t90.5 -5q73 0 114 10t52.5 22.5t11.5 31.5z" />
    <glyph glyph-name="fiveeighths" unicode="&#x215d;" horiz-adv-x="2625" 
d="M1913 1524h399l-1679 -1524h-387zM606 756h-71q-97 0 -175 10.5t-128.5 26t-87.5 39t-56.5 44.5t-30.5 47.5t-13.5 43.5t-2.5 37v6h373q0 -3 2.5 -8.5t12.5 -14t26 -15t45.5 -11.5t68.5 -5q152 0 152 74v6q0 72 -152 72q-39 0 -68.5 -4.5t-45.5 -11t-26 -14t-12.5 -13
t-2.5 -8.5h-359v467h987v-195h-626v-115q99 66 284 66h7q94 0 164.5 -12.5t113.5 -33t69.5 -51.5t36 -64.5t9.5 -76.5v-8q0 -44 -10 -80t-41.5 -74.5t-84 -64.5t-144 -42.5t-214.5 -16.5zM2583 567v-12q0 -61 -54.5 -102t-132.5 -54q90 -13 148.5 -57t58.5 -113v-16
q0 -21 -4 -39.5t-17.5 -42.5t-36 -43.5t-64 -39t-97 -32.5t-138 -21.5t-184.5 -8.5h-49q-142 0 -246.5 16t-159.5 38.5t-88 56t-41 59.5t-8 57v16q0 69 58.5 113t148.5 57q-80 13 -133 53.5t-53 102.5v12q0 25 6 45t23.5 45t54 43t91.5 34.5t143.5 25t203.5 8.5h49
q99 0 178.5 -7t133 -18t93 -27.5t61.5 -33t35 -38t16.5 -39t3.5 -38.5zM2195 535v4q0 16 -9.5 26.5t-46.5 18.5t-103 8q-65 0 -102 -8t-46.5 -18.5t-9.5 -26.5v-4q0 -17 9.5 -28t46.5 -19.5t102 -8.5q66 0 103 8.5t46.5 19.5t9.5 28zM2214 246v2q0 19 -11.5 31t-52.5 21
t-114 9t-113.5 -9t-51.5 -21t-11 -31v-2q0 -14 7 -24.5t24.5 -20t54 -14.5t90.5 -5q73 0 114 10t52.5 22.5t11.5 31.5z" />
    <glyph glyph-name="seveneighths" unicode="&#x215e;" horiz-adv-x="2478" 
d="M35 1524h1063v-193q-6 -7 -38 -41.5t-69 -76.5t-71 -85q-76 -94 -95.5 -162.5t-19.5 -187.5v-8h-430v92q0 81 40.5 139.5t157.5 157.5q137 109 154.5 127t17.5 29h-348v-148h-362v357zM1765 1524h400l-1680 -1524h-387zM2435 567v-12q0 -61 -54 -102t-132 -54
q90 -13 148.5 -57t58.5 -113v-16q0 -21 -4 -39.5t-17.5 -42.5t-36 -43.5t-64 -39t-97 -32.5t-138 -21.5t-184.5 -8.5h-49q-142 0 -246.5 16t-159.5 38.5t-88 56t-41 59.5t-8 57v16q0 69 58.5 113t148.5 57q-80 13 -133.5 53.5t-53.5 102.5v12q0 30 8 54t39.5 53t85.5 48.5
t154 32.5t236 13h49q115 0 203.5 -8.5t143 -25t91 -34.5t53.5 -43t23 -45t6 -45zM2048 535v4q0 16 -9.5 26.5t-47 18.5t-103.5 8q-65 0 -101.5 -8t-46 -18.5t-9.5 -26.5v-4q0 -17 9.5 -28t46 -19.5t101.5 -8.5q66 0 103.5 8.5t47 19.5t9.5 28zM2066 246v2q0 19 -11.5 31
t-52.5 21t-114 9t-113.5 -9t-51.5 -21t-11 -31v-2q0 -14 7 -24.5t24.5 -20t54 -14.5t90.5 -5q73 0 114 10t52.5 22.5t11.5 31.5z" />
    <glyph glyph-name="minus" unicode="&#x2212;" horiz-adv-x="1198" 
d="M61 788h1076v-313h-1076v313z" />
    <glyph glyph-name="uni24C5" unicode="&#x24c5;" horiz-adv-x="2426" 
d="M2380 793v-58q0 -760 -1143 -760h-47q-190 0 -349 21.5t-275.5 60t-206.5 94t-148.5 120t-95.5 142.5t-52.5 156t-15.5 166v58q0 86 15 163t52 154.5t95 141.5t148 120t206 94t275 60t350 22h49q191 0 350.5 -22t276 -60.5t206.5 -94.5t148 -120t95 -141t52 -154t15 -163
zM1192 168h43q870 0 870 577v35q0 105 -25 189.5t-86.5 158.5t-159 123.5t-249 78t-350.5 28.5h-43q-199 0 -350.5 -28.5t-249 -78t-159 -123.5t-86.5 -158.5t-25 -189.5v-35q0 -577 870 -577zM1401 547h-314v-223h-423v884h737q119 0 207.5 -16.5t143 -44t88 -69t46 -86.5
t12.5 -103v-21q0 -72 -22.5 -127t-75.5 -100.5t-153.5 -69.5t-245.5 -24zM1087 969v-185h265q121 0 121 90v7q0 88 -121 88h-265z" />
    <glyph glyph-name="J.alt" unicode="&#xe489;" horiz-adv-x="1093" 
d="M53 0v434h195q99 0 141.5 48t42.5 167v875h582v-1002q0 -265 -127.5 -393.5t-390.5 -128.5h-443z" />
    <glyph glyph-name="a.alt" unicode="&#xe4c0;" horiz-adv-x="1691" 
d="M1067 473v47l-369 -65q-73 -12 -104 -33t-31 -62v-2q0 -46 40.5 -79t133.5 -33q147 0 238.5 68t91.5 159zM1077 147q-167 -167 -516 -167h-22q-133 0 -234.5 29.5t-160 80.5t-87 112.5t-28.5 131.5v24q0 143 103.5 221.5t342.5 98.5l531 47q34 4 47.5 16.5t13.5 36.5
q0 18 -7.5 31t-30.5 26t-73.5 20t-128.5 7h-8q-67 0 -115.5 -9t-72 -19.5t-38.5 -30t-17 -27.5t-5 -26h-516v12q0 37 4 67t20.5 70t45 70t81.5 62t126 52.5t183 33.5t247 13h115q143 0 257 -12t190 -31t131 -49t84.5 -59.5t46.5 -70t21.5 -72t4.5 -74.5v-389q0 -277 28 -363
v-10h-538q-25 45 -25 147z" />
    <glyph glyph-name="r.alt" unicode="&#xe4d1;" horiz-adv-x="1206" 
d="M639 426v-426h-557v1102h553v-262q153 286 516 286v-503q-114 22 -209 22q-303 0 -303 -219z" />
    <glyph glyph-name="idotaccent" horiz-adv-x="720" 
d="M639 1524v-330h-557v330h557zM639 1102v-1102h-557v1102h557z" />
    <glyph glyph-name="space_uni0326" 
d="M885 -606h-267q57 104 72 188h-231v326h528v-256q0 -98 -102 -258z" />
    <glyph glyph-name="zero.num" horiz-adv-x="1284" 
d="M621 1540h47q106 0 193 -13.5t146.5 -35.5t104.5 -53.5t71 -64t42 -71.5t21 -71.5t5 -67.5v-30q0 -34 -5 -65.5t-20.5 -70.5t-41 -72t-70.5 -65t-104.5 -54t-147 -36t-194.5 -14h-47q-107 0 -195 14t-148 36t-105 54t-70.5 65t-41.5 72t-21 70.5t-5 65.5v30q0 35 5 67.5
t21 71.5t41.5 71.5t70.5 64t105 53.5t148 35.5t195 13.5zM856 1147v12q0 63 -48.5 109.5t-164.5 46.5t-164.5 -46.5t-48.5 -109.5v-12q0 -30 9.5 -56.5t32 -52t66.5 -40.5t105 -15t105 15t66.5 40.5t32 52t9.5 56.5z" />
    <glyph glyph-name="one.num" horiz-adv-x="684" 
d="M236 1188h-205v190q117 4 180 42t90 104h315v-754h-380v418z" />
    <glyph glyph-name="two.num" horiz-adv-x="1134" 
d="M1100 770h-1073v96q0 42 5.5 73t23 68t53 66.5t91 59t143.5 54t204 44.5q69 11 108 22.5t50.5 21.5t11.5 23v2q0 46 -144 46q-161 0 -161 -89h-373v9q0 274 510 274h39q126 0 219.5 -13t149 -34t89 -53.5t45 -65.5t11.5 -76v-10q0 -107 -106 -155t-378 -78
q-26 -4 -64.5 -9t-58 -7.5t-46 -7t-40 -7.5t-29 -7.5t-23.5 -9.5t-13 -12h756v-225z" />
    <glyph glyph-name="three.num" horiz-adv-x="1165" 
d="M602 756h-67q-113 0 -202 14.5t-143 40.5t-91 55t-54 63.5t-23 59.5t-6 51v11h377q0 -7 2.5 -15.5t13 -21t28 -22t52 -16.5t80.5 -7q75 0 117 9.5t52 20.5t10 27v4q0 22 -19 32.5t-70 10.5h-229v184h219q84 0 84 35v4q0 14 -10 22.5t-50 15.5t-112 7q-45 0 -78.5 -5.5
t-50 -12.5t-26 -17t-11.5 -16t-2 -12h-364v10q0 17 2.5 33t13.5 42.5t30 49t56.5 47t87.5 41.5t128.5 28t174.5 11h70q136 0 235 -12t153.5 -29.5t86 -44.5t40.5 -51t9 -55v-9q0 -54 -44.5 -88.5t-113.5 -42.5q84 -13 137.5 -60.5t53.5 -123.5v-8q0 -41 -11.5 -74.5
t-46.5 -69.5t-93 -60.5t-159.5 -40t-236.5 -15.5z" />
    <glyph glyph-name="four.num" horiz-adv-x="1138" 
d="M25 1112l524 414h412v-389h153v-219h-153v-148h-379v148h-557v194zM322 1137h260v204z" />
    <glyph glyph-name="five.num" horiz-adv-x="1128" 
d="M606 756h-71q-97 0 -175 10.5t-128.5 26t-87.5 39t-56.5 44.5t-30.5 47.5t-13.5 43.5t-2.5 37v6h373q0 -3 2.5 -8.5t12.5 -14t26 -15t45.5 -11.5t68.5 -5q152 0 152 74v6q0 72 -152 72q-39 0 -68.5 -4.5t-45.5 -11t-26 -14t-12.5 -13t-2.5 -8.5h-359v467h987v-195h-626
v-115q99 66 284 66h7q94 0 164.5 -12.5t113.5 -33t69.5 -51.5t36 -64.5t9.5 -76.5v-8q0 -44 -10 -80t-41.5 -74.5t-84 -64.5t-144 -42.5t-214.5 -16.5z" />
    <glyph glyph-name="six.num" horiz-adv-x="1216" 
d="M651 756h-67q-101 0 -184 13.5t-139 36t-98 54.5t-66 65t-38.5 72.5t-19 71.5t-4.5 68v24q0 36 5 68.5t19.5 72t38.5 72t65.5 64.5t96.5 53.5t135.5 35t179.5 13.5h56q129 0 227 -17t153.5 -42t90.5 -60t46 -66t11 -65v-4h-371q-26 53 -167 53q-64 0 -108 -16.5
t-63.5 -43.5t-26.5 -49.5t-7 -45.5v-4q102 71 327 71h15q108 0 187 -11.5t126 -30.5t75.5 -48t38 -59.5t9.5 -69.5v-10q0 -40 -9.5 -72.5t-42.5 -70.5t-89.5 -63.5t-159.5 -42.5t-242 -17zM440 1022v-4q0 -68 185 -68q58 0 96.5 6t55.5 17t22.5 21t5.5 24v4q0 68 -180 68
q-75 0 -118.5 -11t-55 -24.5t-11.5 -32.5z" />
    <glyph glyph-name="seven.num" horiz-adv-x="1126" 
d="M35 1524h1063v-193q-6 -7 -38 -41.5t-69 -76.5t-71 -85q-76 -94 -95.5 -162.5t-19.5 -187.5v-8h-430v92q0 81 40.5 139.5t157.5 157.5q137 109 154.5 127t17.5 29h-348v-148h-362v357z" />
    <glyph glyph-name="eight.num" horiz-adv-x="1173" 
d="M1133 1337v-12q0 -61 -54.5 -102t-132.5 -54q90 -13 148.5 -57t58.5 -113v-16q0 -21 -4 -39.5t-17.5 -42.5t-36 -43.5t-64 -39t-97 -32.5t-138 -21.5t-184.5 -8.5h-49q-142 0 -246.5 16t-159.5 38.5t-88 56t-41 59.5t-8 57v16q0 69 58.5 113t148.5 57q-80 13 -133 53.5
t-53 102.5v12q0 25 6 45t23.5 45t54 43t91.5 34.5t143.5 25t203.5 8.5h49q99 0 178.5 -7t133 -18t93 -27.5t61.5 -33t35 -38t16.5 -39t3.5 -38.5zM745 1305v4q0 16 -9.5 26.5t-46.5 18.5t-103 8q-65 0 -102 -8t-46.5 -18.5t-9.5 -26.5v-4q0 -17 9.5 -28t46.5 -19.5t102 -8.5
q66 0 103 8.5t46.5 19.5t9.5 28zM764 1016v2q0 19 -11.5 31t-52.5 21t-114 9t-113.5 -9t-51.5 -21t-11 -31v-2q0 -14 7 -24.5t24.5 -20t54 -14.5t90.5 -5q73 0 114 10t52.5 22.5t11.5 31.5z" />
    <glyph glyph-name="nine.num" horiz-adv-x="1218" 
d="M776 1272v4q0 67 -182 67q-58 0 -97 -6t-57 -16.5t-24 -20.5t-6 -24v-2q0 -68 184 -68q182 0 182 66zM641 756h-57q-129 0 -227.5 17.5t-153.5 43.5t-89 61.5t-44.5 65.5t-10.5 62v2h371q0 -3 3 -8.5t14 -14t28 -15t49.5 -11.5t73.5 -5q51 0 89.5 12t59 28.5t33 39.5
t16 40.5t3.5 35.5v4q-16 -13 -42.5 -26t-102.5 -28.5t-173 -15.5h-12q-107 0 -187.5 12.5t-128.5 33t-77.5 51t-40 61t-10.5 68.5v10q0 28 4 50.5t17.5 50t36 49.5t62.5 43t95 35.5t136 23t181 8.5h68q101 0 184.5 -13.5t140 -35t99.5 -53t68 -64t40 -71t20 -71t5 -67.5v-26
q0 -51 -10 -97t-44.5 -100.5t-91 -93.5t-158.5 -65.5t-237 -26.5z" />
    <glyph glyph-name="zero.den" horiz-adv-x="1284" 
d="M621 770h47q106 0 193 -13.5t146.5 -35.5t104.5 -53.5t71 -64t42 -71.5t21 -71.5t5 -67.5v-31q0 -34 -5 -65.5t-20.5 -70.5t-41 -71.5t-70.5 -64.5t-104.5 -54.5t-147 -36t-194.5 -13.5h-47q-107 0 -195 13.5t-148 36t-105 54.5t-70.5 64.5t-41.5 71.5t-21 70.5t-5 65.5
v31q0 35 5 67.5t21 71.5t41.5 71.5t70.5 64t105 53.5t148 35.5t195 13.5zM856 377v12q0 63 -48.5 109.5t-164.5 46.5t-164.5 -46.5t-48.5 -109.5v-12q0 -30 9.5 -56.5t32 -52t66.5 -40.5t105 -15t105 15t66.5 40.5t32 52t9.5 56.5z" />
    <glyph glyph-name="one.den" horiz-adv-x="684" 
d="M236 418h-205v190q117 4 180 42t90 104h315v-754h-380v418z" />
    <glyph glyph-name="two.den" horiz-adv-x="1134" 
d="M1100 0h-1073v96q0 42 5.5 73t23 68t53 66.5t91 59t143.5 54t204 44.5q69 11 108 22.5t50.5 21.5t11.5 23v2q0 45 -144 45q-161 0 -161 -88h-373v9q0 274 510 274h39q126 0 219.5 -13t149 -34t89 -53.5t45 -65.5t11.5 -76v-10q0 -107 -106 -155t-378 -78q-26 -4 -64.5 -9
t-58 -7.5t-46 -7t-40 -7.5t-29 -7.5t-23.5 -9.5t-13 -12h756v-225z" />
    <glyph glyph-name="three.den" horiz-adv-x="1165" 
d="M602 -14h-67q-113 0 -202 14.5t-143 40.5t-91 55t-54 63.5t-23 59.5t-6 51v11h377q0 -7 2.5 -15.5t13 -21t28 -22t52 -16.5t80.5 -7q75 0 117 9.5t52 20.5t10 27v4q0 22 -19 32.5t-70 10.5h-229v184h219q84 0 84 35v4q0 14 -10 22.5t-50 15.5t-112 7q-45 0 -78.5 -5.5
t-50 -12.5t-26 -17t-11.5 -16t-2 -12h-364v10q0 17 2.5 33t13.5 42.5t30 49t56.5 47t87.5 41.5t128.5 28t174.5 11h70q136 0 235 -12t153.5 -29.5t86 -44.5t40.5 -51t9 -55v-9q0 -54 -44.5 -88.5t-113.5 -42.5q84 -13 137.5 -60.5t53.5 -123.5v-8q0 -41 -11.5 -74.5
t-46.5 -69.5t-93 -60.5t-159.5 -40t-236.5 -15.5z" />
    <glyph glyph-name="four.den" horiz-adv-x="1138" 
d="M25 342l524 414h412v-389h153v-220h-153v-147h-379v147h-557v195zM322 367h260v204z" />
    <glyph glyph-name="five.den" horiz-adv-x="1128" 
d="M606 -14h-71q-494 0 -494 247v7h373q0 -3 2.5 -8.5t12.5 -14t26 -15t45.5 -11.5t68.5 -5q152 0 152 74v6q0 72 -152 72q-39 0 -68.5 -4.5t-45.5 -11t-26 -14t-12.5 -13t-2.5 -8.5h-359v467h987v-195h-626v-115q99 66 284 66h7q94 0 164.5 -12.5t113.5 -33t69.5 -51.5
t36 -64.5t9.5 -76.5v-8q0 -44 -10 -80t-41.5 -74.5t-84 -64.5t-144 -42.5t-214.5 -16.5z" />
    <glyph glyph-name="six.den" horiz-adv-x="1216" 
d="M651 -14h-67q-101 0 -184 13.5t-139 36t-98 54.5t-66 65t-38.5 72.5t-19 71.5t-4.5 68v24q0 36 5 68.5t19.5 72t38.5 72t65.5 64.5t96.5 53.5t135.5 35t179.5 13.5h56q129 0 227 -17t153.5 -42t90.5 -60t46 -66t11 -65v-4h-371q-26 53 -167 53q-64 0 -108 -16.5
t-63.5 -43.5t-26.5 -49.5t-7 -45.5v-4q102 71 327 71h15q108 0 187 -11.5t126 -30.5t75.5 -48t38 -59.5t9.5 -69.5v-10q0 -40 -9.5 -72.5t-42.5 -70.5t-89.5 -63.5t-159.5 -42.5t-242 -17zM440 252v-4q0 -68 185 -68q58 0 96.5 6t55.5 17t22.5 21t5.5 24v4q0 19 -11 32
t-53 24t-116 11q-75 0 -118.5 -10.5t-55 -24t-11.5 -32.5z" />
    <glyph glyph-name="seven.den" horiz-adv-x="1126" 
d="M35 754h1063v-193q-6 -7 -38 -41.5t-69 -76.5t-71 -85q-76 -94 -95.5 -162.5t-19.5 -187.5v-8h-430v92q0 81 40.5 139.5t157.5 157.5q137 109 154.5 127t17.5 29h-348v-148h-362v357z" />
    <glyph glyph-name="eight.den" horiz-adv-x="1173" 
d="M1133 567v-12q0 -61 -54.5 -102t-132.5 -54q90 -13 148.5 -57t58.5 -113v-16q0 -21 -4 -39.5t-17.5 -42.5t-36 -43.5t-64 -39t-97 -32.5t-138 -21.5t-184.5 -8.5h-49q-142 0 -246.5 16t-159.5 38.5t-88 56t-41 59.5t-8 57v16q0 69 58.5 113t148.5 57q-80 13 -133 53.5
t-53 102.5v12q0 25 6 45t23.5 45t54 43t91.5 34.5t143.5 25t203.5 8.5h49q99 0 178.5 -7t133 -18t93 -27.5t61.5 -33t35 -38t16.5 -39t3.5 -38.5zM745 535v4q0 16 -9.5 26.5t-46.5 18.5t-103 8q-65 0 -102 -8t-46.5 -18.5t-9.5 -26.5v-4q0 -17 9.5 -28t46.5 -19.5t102 -8.5
q66 0 103 8.5t46.5 19.5t9.5 28zM764 246v2q0 19 -11.5 31t-52.5 21t-114 9t-113.5 -9t-51.5 -21t-11 -31v-2q0 -14 7 -24.5t24.5 -20t54 -14.5t90.5 -5q73 0 114 10t52.5 22.5t11.5 31.5z" />
    <glyph glyph-name="nine.den" horiz-adv-x="1218" 
d="M776 502v4q0 67 -182 67q-58 0 -97 -6t-57 -16.5t-24 -20.5t-6 -24v-2q0 -68 184 -68q182 0 182 66zM641 -14h-57q-129 0 -227.5 17.5t-153.5 43.5t-89 61.5t-44.5 65.5t-10.5 62v2h371q0 -3 3 -8.5t14 -14t28 -15t49.5 -11.5t73.5 -5q51 0 89.5 12t59 28.5t33 39.5
t16 40.5t3.5 35.5v4q-16 -13 -42.5 -26t-102.5 -28.5t-173 -15.5h-12q-107 0 -187.5 12.5t-128.5 33t-77.5 51t-40 61t-10.5 68.5v10q0 28 4 50.5t17.5 50t36 49.5t62.5 43t95 35.5t136 23t181 8.5h68q101 0 184.5 -13.5t140 -35t99.5 -53t68 -64t40 -71t20 -71t5 -67.5v-26
q0 -51 -10 -97t-44.5 -100.5t-91 -93.5t-158.5 -65.5t-237 -26.5z" />
    <glyph glyph-name="zero.sub" horiz-adv-x="1284" 
d="M621 578h47q106 0 193 -13.5t146.5 -35.5t104.5 -53.5t71 -64t42 -71.5t21 -71.5t5 -67.5v-31q0 -34 -5 -65.5t-20.5 -70.5t-41 -72t-70.5 -65t-104.5 -54t-147 -36t-194.5 -14h-47q-107 0 -195 14t-148 36t-105 54t-70.5 65t-41.5 72t-21 70.5t-5 65.5v31q0 35 5 67.5
t21 71.5t41.5 71.5t70.5 64t105 53.5t148 35.5t195 13.5zM856 184v13q0 63 -48.5 109t-164.5 46t-164.5 -46t-48.5 -109v-13q0 -30 9.5 -56.5t32 -52t66.5 -40.5t105 -15t105 15t66.5 40.5t32 52t9.5 56.5z" />
    <glyph glyph-name="one.sub" horiz-adv-x="684" 
d="M236 225h-205v191q117 4 180 42t90 103h315v-754h-380v418z" />
    <glyph glyph-name="two.sub" horiz-adv-x="1134" 
d="M1100 -193h-1073v97q0 42 5.5 73t23 68t53 66t91 58.5t143.5 54t204 44.5q69 11 108 23t50.5 22t11.5 23v2q0 45 -144 45q-161 0 -161 -88h-373v8q0 275 510 275h39q126 0 219.5 -13t149 -34t89 -53.5t45 -65.5t11.5 -76v-10q0 -107 -106.5 -155.5t-377.5 -78.5
q-28 -4 -65 -9t-57.5 -7.5t-46.5 -6.5t-40 -7t-28.5 -7.5t-23 -9.5t-13.5 -12h756v-226z" />
    <glyph glyph-name="three.sub" horiz-adv-x="1165" 
d="M602 -207h-67q-98 0 -177.5 11.5t-132.5 30t-92.5 44.5t-61 51.5t-35 54.5t-17 50.5t-3.5 42.5v10h377q0 -7 2.5 -15.5t13 -21t28 -22t52 -16.5t80.5 -7q75 0 117 9.5t52 20.5t10 27v5q0 22 -19 32.5t-70 10.5h-229v184h219q84 0 84 35v4q0 14 -10 22.5t-50 15.5t-112 7
q-45 0 -78.5 -5.5t-50 -13t-26 -17.5t-11.5 -16t-2 -12h-364v11q0 17 2.5 33t13.5 42.5t30 49t56.5 47t87.5 41.5t128.5 28t174.5 11h70q136 0 235 -12t153.5 -29.5t86 -45t40.5 -51.5t9 -55v-8q0 -54 -44.5 -88.5t-113.5 -42.5q84 -13 137.5 -61t53.5 -124v-8
q0 -41 -11.5 -74.5t-46.5 -69.5t-93 -60.5t-159.5 -40t-236.5 -15.5z" />
    <glyph glyph-name="four.sub" horiz-adv-x="1138" 
d="M25 150l524 413h412v-389h153v-219h-153v-148h-379v148h-557v195zM322 174h260v205z" />
    <glyph glyph-name="five.sub" horiz-adv-x="1128" 
d="M606 -207h-71q-97 0 -175 10.5t-128.5 26t-87.5 39t-56.5 44.5t-30.5 47.5t-13.5 43.5t-2.5 37v6h373q0 -3 2.5 -8.5t12.5 -13.5t26 -14.5t45.5 -11.5t68.5 -5q152 0 152 74v6q0 71 -152 71q-39 0 -68.5 -4.5t-45.5 -11t-26 -14t-12.5 -13t-2.5 -8.5h-359v467h987v-194
h-626v-115q98 65 284 65h7q94 0 164 -12t113.5 -32.5t70 -52t36 -64.5t9.5 -76v-8q0 -44 -10 -80.5t-41.5 -75t-84 -64.5t-144 -42.5t-214.5 -16.5z" />
    <glyph glyph-name="six.sub" horiz-adv-x="1216" 
d="M651 -207h-67q-101 0 -184 13.5t-139 36t-98 54.5t-66 65t-38.5 72.5t-19 71.5t-4.5 68v25q0 36 5 68.5t19.5 72t38.5 72t65.5 64.5t96.5 53.5t135.5 35t179.5 13.5h56q129 0 227 -17t153.5 -42t90.5 -60t46 -66t11 -65v-4h-371q-26 53 -167 53q-64 0 -108 -16.5
t-63.5 -44t-26.5 -50t-7 -45.5v-4q104 72 327 72h15q108 0 187 -11.5t126 -30.5t75.5 -48t38 -59.5t9.5 -69.5v-11q0 -40 -9.5 -72.5t-42.5 -70.5t-89.5 -63.5t-159.5 -42.5t-242 -17zM440 59v-4q0 -67 185 -67q58 0 96.5 5.5t55.5 16.5t22.5 21t5.5 24v4q0 68 -180 68
q-75 0 -118.5 -11t-55 -24.5t-11.5 -32.5z" />
    <glyph glyph-name="seven.sub" horiz-adv-x="1126" 
d="M35 561h1063v-192q-6 -7 -38 -41.5t-69 -76.5t-71 -85q-76 -94 -95.5 -162.5t-19.5 -187.5v-9h-430v93q0 81 40.5 139.5t157.5 157.5q137 108 152 124q20 19 20 31h-348v-147h-362v356z" />
    <glyph glyph-name="eight.sub" horiz-adv-x="1173" 
d="M1133 375v-13q0 -61 -54.5 -101.5t-132.5 -53.5q90 -13 148.5 -57t58.5 -113v-17q0 -21 -4 -39.5t-17.5 -42.5t-36 -43.5t-64 -39t-97 -32.5t-138 -21.5t-184.5 -8.5h-49q-142 0 -246.5 16t-159.5 38.5t-88 56t-41 59.5t-8 57v17q0 69 58.5 113t148.5 57q-80 13 -133 53
t-53 102v13q0 30 8 54t39.5 53t85 48t153.5 32t236 13h49q136 0 236 -13t153.5 -32t84.5 -48t39 -52.5t8 -54.5zM745 342v4q0 16 -9.5 26.5t-46.5 18.5t-103 8q-65 0 -102 -8t-46.5 -18.5t-9.5 -26.5v-4q0 -17 9.5 -27.5t46 -19t102.5 -8.5q67 0 103.5 8.5t46 19t9.5 27.5z
M764 53v2q0 19 -11.5 31.5t-52.5 21.5t-114 9t-113.5 -9.5t-51.5 -21.5t-11 -31v-2q0 -19 11.5 -31.5t52.5 -22t112 -9.5q73 0 114 9.5t52.5 22t11.5 31.5z" />
    <glyph glyph-name="nine.sub" horiz-adv-x="1218" 
d="M776 309v4q0 68 -182 68q-76 0 -119.5 -11.5t-54 -24.5t-10.5 -32v-2q0 -67 184 -67q182 0 182 65zM641 -207h-57q-129 0 -227.5 17.5t-153.5 43.5t-89 61.5t-44.5 65.5t-10.5 62v2h371q0 -3 3 -8.5t14 -13.5t28 -14.5t49.5 -11.5t73.5 -5q51 0 89.5 11.5t59 28.5
t33 39.5t16 40t3.5 35.5v5q-16 -13 -42.5 -26t-102.5 -28.5t-173 -15.5h-12q-107 0 -187.5 12.5t-128.5 32.5t-77.5 50.5t-40 61t-10.5 68.5v10q0 28 4 50.5t17.5 50.5t36 49.5t62.5 43t95 35.5t136 23t181 9h68q101 0 184.5 -13.5t140 -35t99.5 -53t68 -64t40 -71t20 -71
t5 -67.5v-27q0 -51 -10 -97t-44.5 -100.5t-91 -93.5t-158.5 -65.5t-237 -26.5z" />
    <glyph glyph-name="zero.sup" horiz-adv-x="1284" 
d="M621 1540h47q106 0 193 -13.5t146.5 -35.5t104.5 -53.5t71 -64t42 -71.5t21 -71.5t5 -67.5v-30q0 -34 -5 -65.5t-20.5 -70.5t-41 -72t-70.5 -65t-104.5 -54t-147 -36t-194.5 -14h-47q-107 0 -195 14t-148 36t-105 54t-70.5 65t-41.5 72t-21 70.5t-5 65.5v30q0 35 5 67.5
t21 71.5t41.5 71.5t70.5 64t105 53.5t148 35.5t195 13.5zM856 1147v12q0 63 -48.5 109.5t-164.5 46.5t-164.5 -46.5t-48.5 -109.5v-12q0 -30 9.5 -56.5t32 -52t66.5 -40.5t105 -15t105 15t66.5 40.5t32 52t9.5 56.5z" />
    <glyph glyph-name="one.sup" horiz-adv-x="684" 
d="M236 1188h-205v190q117 4 180 42t90 104h315v-754h-380v418z" />
    <glyph glyph-name="two.sup" horiz-adv-x="1134" 
d="M1100 770h-1073v96q0 42 5.5 73t23 68t53 66.5t91 59t143.5 54t204 44.5q69 11 108 22.5t50.5 21.5t11.5 23v2q0 46 -144 46q-161 0 -161 -89h-373v9q0 274 510 274h39q126 0 219.5 -13t149 -34t89 -53.5t45 -65.5t11.5 -76v-10q0 -107 -106 -155t-378 -78
q-26 -4 -64.5 -9t-58 -7.5t-46 -7t-40 -7.5t-29 -7.5t-23.5 -9.5t-13 -12h756v-225z" />
    <glyph glyph-name="three.sup" horiz-adv-x="1165" 
d="M602 756h-67q-113 0 -202 14.5t-143 40.5t-91 55t-54 63.5t-23 59.5t-6 51v11h377q0 -7 2.5 -15.5t13 -21t28 -22t52 -16.5t80.5 -7q75 0 117 9.5t52 20.5t10 27v4q0 22 -19 32.5t-70 10.5h-229v184h219q84 0 84 35v4q0 14 -10 22.5t-50 15.5t-112 7q-45 0 -78.5 -5.5
t-50 -12.5t-26 -17t-11.5 -16t-2 -12h-364v10q0 17 2.5 33t13.5 42.5t30 49t56.5 47t87.5 41.5t128.5 28t174.5 11h70q136 0 235 -12t153.5 -29.5t86 -44.5t40.5 -51t9 -55v-9q0 -54 -44.5 -88.5t-113.5 -42.5q84 -13 137.5 -60.5t53.5 -123.5v-8q0 -41 -11.5 -74.5
t-46.5 -69.5t-93 -60.5t-159.5 -40t-236.5 -15.5z" />
    <glyph glyph-name="four.sup" horiz-adv-x="1138" 
d="M25 1112l524 414h412v-389h153v-219h-153v-148h-379v148h-557v194zM322 1137h260v204z" />
    <glyph glyph-name="five.sup" horiz-adv-x="1128" 
d="M606 756h-71q-97 0 -175 10.5t-128.5 26t-87.5 39t-56.5 44.5t-30.5 47.5t-13.5 43.5t-2.5 37v6h373q0 -3 2.5 -8.5t12.5 -14t26 -15t45.5 -11.5t68.5 -5q152 0 152 74v6q0 72 -152 72q-39 0 -68.5 -4.5t-45.5 -11t-26 -14t-12.5 -13t-2.5 -8.5h-359v467h987v-195h-626
v-115q99 66 284 66h7q94 0 164.5 -12.5t113.5 -33t69.5 -51.5t36 -64.5t9.5 -76.5v-8q0 -44 -10 -80t-41.5 -74.5t-84 -64.5t-144 -42.5t-214.5 -16.5z" />
    <glyph glyph-name="six.sup" horiz-adv-x="1216" 
d="M651 756h-67q-101 0 -184 13.5t-139 36t-98 54.5t-66 65t-38.5 72.5t-19 71.5t-4.5 68v24q0 36 5 68.5t19.5 72t38.5 72t65.5 64.5t96.5 53.5t135.5 35t179.5 13.5h56q129 0 227 -17t153.5 -42t90.5 -60t46 -66t11 -65v-4h-371q-26 53 -167 53q-64 0 -108 -16.5
t-63.5 -43.5t-26.5 -49.5t-7 -45.5v-4q102 71 327 71h15q108 0 187 -11.5t126 -30.5t75.5 -48t38 -59.5t9.5 -69.5v-10q0 -40 -9.5 -72.5t-42.5 -70.5t-89.5 -63.5t-159.5 -42.5t-242 -17zM440 1022v-4q0 -68 185 -68q58 0 96.5 6t55.5 17t22.5 21t5.5 24v4q0 68 -180 68
q-75 0 -118.5 -11t-55 -24.5t-11.5 -32.5z" />
    <glyph glyph-name="seven.sup" horiz-adv-x="1126" 
d="M35 1524h1063v-193q-6 -7 -38 -41.5t-69 -76.5t-71 -85q-76 -94 -95.5 -162.5t-19.5 -187.5v-8h-430v92q0 81 40.5 139.5t157.5 157.5q137 109 154.5 127t17.5 29h-348v-148h-362v357z" />
    <glyph glyph-name="eight.sup" horiz-adv-x="1173" 
d="M1133 1337v-12q0 -61 -54.5 -102t-132.5 -54q90 -13 148.5 -57t58.5 -113v-16q0 -21 -4 -39.5t-17.5 -42.5t-36 -43.5t-64 -39t-97 -32.5t-138 -21.5t-184.5 -8.5h-49q-142 0 -246.5 16t-159.5 38.5t-88 56t-41 59.5t-8 57v16q0 69 58.5 113t148.5 57q-80 13 -133 53.5
t-53 102.5v12q0 25 6 45t23.5 45t54 43t91.5 34.5t143.5 25t203.5 8.5h49q99 0 178.5 -7t133 -18t93 -27.5t61.5 -33t35 -38t16.5 -39t3.5 -38.5zM745 1305v4q0 16 -9.5 26.5t-46.5 18.5t-103 8q-65 0 -102 -8t-46.5 -18.5t-9.5 -26.5v-4q0 -17 9.5 -28t46.5 -19.5t102 -8.5
q66 0 103 8.5t46.5 19.5t9.5 28zM764 1016v2q0 19 -11.5 31t-52.5 21t-114 9t-113.5 -9t-51.5 -21t-11 -31v-2q0 -14 7 -24.5t24.5 -20t54 -14.5t90.5 -5q73 0 114 10t52.5 22.5t11.5 31.5z" />
    <glyph glyph-name="nine.sup" horiz-adv-x="1218" 
d="M776 1272v4q0 67 -182 67q-58 0 -97 -6t-57 -16.5t-24 -20.5t-6 -24v-2q0 -68 184 -68q182 0 182 66zM641 756h-57q-129 0 -227.5 17.5t-153.5 43.5t-89 61.5t-44.5 65.5t-10.5 62v2h371q0 -3 3 -8.5t14 -14t28 -15t49.5 -11.5t73.5 -5q51 0 89.5 12t59 28.5t33 39.5
t16 40.5t3.5 35.5v4q-16 -13 -42.5 -26t-102.5 -28.5t-173 -15.5h-12q-107 0 -187.5 12.5t-128.5 33t-77.5 51t-40 61t-10.5 68.5v10q0 28 4 50.5t17.5 50t36 49.5t62.5 43t95 35.5t136 23t181 8.5h68q101 0 184.5 -13.5t140 -35t99.5 -53t68 -64t40 -71t20 -71t5 -67.5v-26
q0 -51 -10 -97t-44.5 -100.5t-91 -93.5t-158.5 -65.5t-237 -26.5z" />
    <glyph glyph-name="IJ.alt" horiz-adv-x="1859" 
d="M678 1524v-1524h-580v1524h580zM817 0v434h195q99 0 141.5 48t42.5 167v875h582v-1002q0 -265 -127.5 -393.5t-390.5 -128.5h-443z" />
    <glyph glyph-name="a.alt2" horiz-adv-x="1863" 
d="M1225 551v10q0 98 -88.5 176t-235.5 78h-10q-78 0 -136 -22t-89.5 -60t-46.5 -81t-15 -91v-10q0 -45 17 -89.5t50.5 -83.5t91.5 -63t132 -24h10q75 0 137.5 23.5t101.5 61.5t60 83.5t21 91.5zM1225 1102h557v-1102h-555v162q-19 -24 -53.5 -50t-95 -58.5t-155 -53
t-204.5 -20.5h-33q-163 0 -290 45.5t-203.5 124.5t-115 177t-38.5 210v43q0 84 23 161.5t73 147.5t122.5 121.5t178 81.5t232.5 30h37q109 0 204 -17.5t157 -45t99.5 -51t59.5 -45.5v139z" />
    <glyph glyph-name="Jcircumflex.alt" horiz-adv-x="1093" 
d="M1004 1933l335 -317h-499l-127 119l-125 -119h-494l332 317h578zM53 0v434h195q99 0 141.5 48t42.5 167v875h582v-1002q0 -265 -127.5 -393.5t-390.5 -128.5h-443z" />
    <glyph glyph-name="aacute.alt" horiz-adv-x="1691" 
d="M569 1198l179 326h550l-227 -326h-502zM1067 473v47l-369 -65q-73 -12 -104 -33t-31 -62v-2q0 -46 40.5 -79t133.5 -33q147 0 238.5 68t91.5 159zM1077 147q-167 -167 -516 -167h-22q-133 0 -234.5 29.5t-160 80.5t-87 112.5t-28.5 131.5v24q0 143 103.5 221.5
t342.5 98.5l531 47q34 4 47.5 16.5t13.5 36.5q0 18 -7.5 31t-30.5 26t-73.5 20t-128.5 7h-8q-67 0 -115.5 -9t-72 -19.5t-38.5 -30t-17 -27.5t-5 -26h-516v12q0 37 4 67t20.5 70t45 70t81.5 62t126 52.5t183 33.5t247 13h115q143 0 257 -12t190 -31t131 -49t84.5 -59.5
t46.5 -70t21.5 -72t4.5 -74.5v-389q0 -277 28 -363v-10h-538q-25 45 -25 147z" />
    <glyph glyph-name="aacute.alt2" horiz-adv-x="1863" 
d="M637 1194l182 330h549l-227 -330h-504zM1225 551v10q0 98 -88.5 176t-235.5 78h-10q-78 0 -136 -22t-89.5 -60t-46.5 -81t-15 -91v-10q0 -45 17 -89.5t50.5 -83.5t91.5 -63t132 -24h10q75 0 137.5 23.5t101.5 61.5t60 83.5t21 91.5zM1225 1102h557v-1102h-555v162
q-19 -24 -53.5 -50t-95 -58.5t-155 -53t-204.5 -20.5h-33q-163 0 -290 45.5t-203.5 124.5t-115 177t-38.5 210v43q0 84 23 161.5t73 147.5t122.5 121.5t178 81.5t232.5 30h37q109 0 204 -17.5t157 -45t99.5 -51t59.5 -45.5v139z" />
    <glyph glyph-name="abreve.alt" horiz-adv-x="1691" 
d="M868 1184h-82q-111 0 -196.5 25.5t-133 62t-77.5 85t-39.5 87.5t-9.5 76v4h370q0 -32 29 -64.5t100 -32.5q68 0 97.5 33t29.5 64h365v-4q0 -35 -12.5 -76t-45.5 -88t-82 -84.5t-130.5 -62.5t-182.5 -25zM1067 473v47l-369 -65q-73 -12 -104 -33t-31 -62v-2
q0 -46 40.5 -79t133.5 -33q147 0 238.5 68t91.5 159zM1077 147q-167 -167 -516 -167h-22q-133 0 -234.5 29.5t-160 80.5t-87 112.5t-28.5 131.5v24q0 143 103.5 221.5t342.5 98.5l531 47q34 4 47.5 16.5t13.5 36.5q0 18 -7.5 31t-30.5 26t-73.5 20t-128.5 7h-8
q-67 0 -115.5 -9t-72 -19.5t-38.5 -30t-17 -27.5t-5 -26h-516v12q0 37 4 67t20.5 70t45 70t81.5 62t126 52.5t183 33.5t247 13h115q143 0 257 -12t190 -31t131 -49t84.5 -59.5t46.5 -70t21.5 -72t4.5 -74.5v-389q0 -277 28 -363v-10h-538q-25 45 -25 147z" />
    <glyph glyph-name="abreve.alt2" horiz-adv-x="1863" 
d="M1225 551v10q0 98 -88.5 176t-235.5 78h-10q-78 0 -136 -22t-89.5 -60t-46.5 -81t-15 -91v-10q0 -45 17 -89.5t50.5 -83.5t91.5 -63t132 -24h10q75 0 137.5 23.5t101.5 61.5t60 83.5t21 91.5zM1225 1102h557v-1102h-555v162q-19 -24 -53.5 -50t-95 -58.5t-155 -53
t-204.5 -20.5h-33q-163 0 -290 45.5t-203.5 124.5t-115 177t-38.5 210v43q0 84 23 161.5t73 147.5t122.5 121.5t178 81.5t232.5 30h37q109 0 204 -17.5t157 -45t99.5 -51t59.5 -45.5v139zM1380 1524v-4q0 -37 -12.5 -78t-45 -88.5t-81 -84.5t-130 -62t-183.5 -25h-82
q-111 0 -197 25t-133.5 61.5t-77.5 85t-39.5 88t-9.5 78.5v4h371q0 -13 4.5 -27.5t17 -32t40 -28.5t67.5 -11q69 0 98 33.5t29 65.5h364z" />
    <glyph glyph-name="acircumflex.alt" horiz-adv-x="1691" 
d="M1108 1524l313 -328h-483l-119 131l-119 -131h-479l314 328h573zM1067 473v47l-369 -65q-73 -12 -104 -33t-31 -62v-2q0 -46 40.5 -79t133.5 -33q147 0 238.5 68t91.5 159zM1077 147q-167 -167 -516 -167h-22q-133 0 -234.5 29.5t-160 80.5t-87 112.5t-28.5 131.5v24
q0 143 103.5 221.5t342.5 98.5l531 47q34 4 47.5 16.5t13.5 36.5q0 18 -7.5 31t-30.5 26t-73.5 20t-128.5 7h-8q-67 0 -115.5 -9t-72 -19.5t-38.5 -30t-17 -27.5t-5 -26h-516v12q0 37 4 67t20.5 70t45 70t81.5 62t126 52.5t183 33.5t247 13h115q143 0 257 -12t190 -31
t131 -49t84.5 -59.5t46.5 -70t21.5 -72t4.5 -74.5v-389q0 -277 28 -363v-10h-538q-25 45 -25 147z" />
    <glyph glyph-name="acircumflex.alt2" horiz-adv-x="1863" 
d="M1174 1524l313 -332h-486l-118 135l-119 -135h-477l311 332h576zM1225 551v10q0 98 -88.5 176t-235.5 78h-10q-78 0 -136 -22t-89.5 -60t-46.5 -81t-15 -91v-10q0 -45 17 -89.5t50.5 -83.5t91.5 -63t132 -24h10q75 0 137.5 23.5t101.5 61.5t60 83.5t21 91.5zM1225 1102
h557v-1102h-555v162q-19 -24 -53.5 -50t-95 -58.5t-155 -53t-204.5 -20.5h-33q-163 0 -290 45.5t-203.5 124.5t-115 177t-38.5 210v43q0 84 23 161.5t73 147.5t122.5 121.5t178 81.5t232.5 30h37q109 0 204 -17.5t157 -45t99.5 -51t59.5 -45.5v139z" />
    <glyph glyph-name="adieresis.alt" horiz-adv-x="1691" 
d="M1358 1524v-326h-490v326h490zM774 1524v-326h-487v326h487zM1067 473v47l-369 -65q-73 -12 -104 -33t-31 -62v-2q0 -46 40.5 -79t133.5 -33q147 0 238.5 68t91.5 159zM1077 147q-167 -167 -516 -167h-22q-133 0 -234.5 29.5t-160 80.5t-87 112.5t-28.5 131.5v24
q0 143 103.5 221.5t342.5 98.5l531 47q34 4 47.5 16.5t13.5 36.5q0 18 -7.5 31t-30.5 26t-73.5 20t-128.5 7h-8q-67 0 -115.5 -9t-72 -19.5t-38.5 -30t-17 -27.5t-5 -26h-516v12q0 37 4 67t20.5 70t45 70t81.5 62t126 52.5t183 33.5t247 13h115q143 0 257 -12t190 -31
t131 -49t84.5 -59.5t46.5 -70t21.5 -72t4.5 -74.5v-389q0 -277 28 -363v-10h-538q-25 45 -25 147z" />
    <glyph glyph-name="adieresis.alt2" horiz-adv-x="1863" 
d="M1421 1524v-330h-487v330h487zM840 1524v-330h-486v330h486zM1225 551v10q0 98 -88.5 176t-235.5 78h-10q-78 0 -136 -22t-89.5 -60t-46.5 -81t-15 -91v-10q0 -45 17 -89.5t50.5 -83.5t91.5 -63t132 -24h10q75 0 137.5 23.5t101.5 61.5t60 83.5t21 91.5zM1225 1102h557
v-1102h-555v162q-19 -24 -53.5 -50t-95 -58.5t-155 -53t-204.5 -20.5h-33q-163 0 -290 45.5t-203.5 124.5t-115 177t-38.5 210v43q0 84 23 161.5t73 147.5t122.5 121.5t178 81.5t232.5 30h37q109 0 204 -17.5t157 -45t99.5 -51t59.5 -45.5v139z" />
    <glyph glyph-name="agrave.alt" horiz-adv-x="1691" 
d="M1085 1198h-505l-228 326h553zM1067 473v47l-369 -65q-73 -12 -104 -33t-31 -62v-2q0 -46 40.5 -79t133.5 -33q147 0 238.5 68t91.5 159zM1077 147q-167 -167 -516 -167h-22q-133 0 -234.5 29.5t-160 80.5t-87 112.5t-28.5 131.5v24q0 143 103.5 221.5t342.5 98.5l531 47
q34 4 47.5 16.5t13.5 36.5q0 18 -7.5 31t-30.5 26t-73.5 20t-128.5 7h-8q-67 0 -115.5 -9t-72 -19.5t-38.5 -30t-17 -27.5t-5 -26h-516v12q0 37 4 67t20.5 70t45 70t81.5 62t126 52.5t183 33.5t247 13h115q143 0 257 -12t190 -31t131 -49t84.5 -59.5t46.5 -70t21.5 -72
t4.5 -74.5v-389q0 -277 28 -363v-10h-538q-25 45 -25 147z" />
    <glyph glyph-name="agrave.alt2" horiz-adv-x="1863" 
d="M1225 551v10q0 98 -88.5 176t-235.5 78h-10q-78 0 -136 -22t-89.5 -60t-46.5 -81t-15 -91v-10q0 -45 17 -89.5t50.5 -83.5t91.5 -63t132 -24h10q75 0 137.5 23.5t101.5 61.5t60 83.5t21 91.5zM1225 1102h557v-1102h-555v162q-19 -24 -53.5 -50t-95 -58.5t-155 -53
t-204.5 -20.5h-33q-163 0 -290 45.5t-203.5 124.5t-115 177t-38.5 210v43q0 84 23 161.5t73 147.5t122.5 121.5t178 81.5t232.5 30h37q109 0 204 -17.5t157 -45t99.5 -51t59.5 -45.5v139zM1143 1194h-506l-227 330h553z" />
    <glyph glyph-name="amacron.alt" horiz-adv-x="1691" 
d="M1067 473v47l-369 -65q-73 -12 -104 -33t-31 -62v-2q0 -46 40.5 -79t133.5 -33q147 0 238.5 68t91.5 159zM1077 147q-167 -167 -516 -167h-22q-133 0 -234.5 29.5t-160 80.5t-87 112.5t-28.5 131.5v24q0 143 103.5 221.5t342.5 98.5l531 47q34 4 47.5 16.5t13.5 36.5
q0 18 -7.5 31t-30.5 26t-73.5 20t-128.5 7h-8q-67 0 -115.5 -9t-72 -19.5t-38.5 -30t-17 -27.5t-5 -26h-516v12q0 37 4 67t20.5 70t45 70t81.5 62t126 52.5t183 33.5t247 13h115q143 0 257 -12t190 -31t131 -49t84.5 -59.5t46.5 -70t21.5 -72t4.5 -74.5v-389q0 -277 28 -363
v-10h-538q-25 45 -25 147zM360 1217v264h926v-264h-926z" />
    <glyph glyph-name="amacron.alt2" horiz-adv-x="1863" 
d="M428 1214v265h926v-265h-926zM1225 551v10q0 98 -88.5 176t-235.5 78h-10q-78 0 -136 -22t-89.5 -60t-46.5 -81t-15 -91v-10q0 -45 17 -89.5t50.5 -83.5t91.5 -63t132 -24h10q75 0 137.5 23.5t101.5 61.5t60 83.5t21 91.5zM1225 1102h557v-1102h-555v162
q-19 -24 -53.5 -50t-95 -58.5t-155 -53t-204.5 -20.5h-33q-163 0 -290 45.5t-203.5 124.5t-115 177t-38.5 210v43q0 84 23 161.5t73 147.5t122.5 121.5t178 81.5t232.5 30h37q109 0 204 -17.5t157 -45t99.5 -51t59.5 -45.5v139z" />
    <glyph glyph-name="aogonek.alt" horiz-adv-x="1691" 
d="M1067 473v47l-369 -65q-73 -12 -104 -33t-31 -62v-2q0 -46 40.5 -79t133.5 -33q147 0 238.5 68t91.5 159zM1077 147q-167 -167 -516 -167h-22q-133 0 -234.5 29.5t-160 80.5t-87 112.5t-28.5 131.5v24q0 143 103.5 221.5t342.5 98.5l531 47q34 4 47.5 16.5t13.5 36.5
q0 18 -7.5 31t-30.5 26t-73.5 20t-128.5 7h-8q-67 0 -115.5 -9t-72 -19.5t-38.5 -30t-17 -27.5t-5 -26h-516v12q0 37 4 67t20.5 70t45 70t81.5 62t126 52.5t183 33.5t247 13h115q143 0 257 -12t190 -31t131 -49t84.5 -59.5t46.5 -70t21.5 -72t4.5 -74.5v-389q0 -277 28 -363
v-10h-538q-25 45 -25 147zM1010 -238v7q0 80 95.5 131.5t299.5 99.5h233q-63 -41 -92.5 -69t-29.5 -56q0 -43 67 -43h55v-217h-327q-157 0 -229 36.5t-72 110.5z" />
    <glyph glyph-name="aogonek.alt2" horiz-adv-x="1863" 
d="M1151 -238v7q0 80 95.5 131.5t299.5 99.5h234q-63 -41 -93 -69t-30 -56q0 -43 67 -43h56v-217h-328q-157 0 -229 36.5t-72 110.5zM1225 551v10q0 98 -88.5 176t-235.5 78h-10q-78 0 -136 -22t-89.5 -60t-46.5 -81t-15 -91v-10q0 -45 17 -89.5t50.5 -83.5t91.5 -63
t132 -24h10q75 0 137.5 23.5t101.5 61.5t60 83.5t21 91.5zM1225 1102h557v-1102h-555v162q-19 -24 -53.5 -50t-95 -58.5t-155 -53t-204.5 -20.5h-33q-163 0 -290 45.5t-203.5 124.5t-115 177t-38.5 210v43q0 84 23 161.5t73 147.5t122.5 121.5t178 81.5t232.5 30h37
q109 0 204 -17.5t157 -45t99.5 -51t59.5 -45.5v139z" />
    <glyph glyph-name="aring.alt" horiz-adv-x="1691" 
d="M416 1425q0 52 20 93.5t65 76t126 53.5t194 19q400 0 400 -242q0 -243 -400 -243q-116 0 -197.5 18.5t-125.5 53.5t-63 76.5t-19 94.5zM668 1425q0 -43 38 -67.5t115 -24.5q75 0 112.5 24.5t37.5 67.5q0 91 -150 91q-153 0 -153 -91zM1067 473v47l-369 -65
q-73 -12 -104 -33t-31 -62v-2q0 -46 40.5 -79t133.5 -33q147 0 238.5 68t91.5 159zM1077 147q-167 -167 -516 -167h-22q-133 0 -234.5 29.5t-160 80.5t-87 112.5t-28.5 131.5v24q0 143 103.5 221.5t342.5 98.5l531 47q34 4 47.5 16.5t13.5 36.5q0 18 -7.5 31t-30.5 26
t-73.5 20t-128.5 7h-8q-67 0 -115.5 -9t-72 -19.5t-38.5 -30t-17 -27.5t-5 -26h-516v12q0 37 4 67t20.5 70t45 70t81.5 62t126 52.5t183 33.5t247 13h115q143 0 257 -12t190 -31t131 -49t84.5 -59.5t46.5 -70t21.5 -72t4.5 -74.5v-389q0 -277 28 -363v-10h-538
q-25 45 -25 147z" />
    <glyph glyph-name="aring.alt2" horiz-adv-x="1863" 
d="M481 1423q0 41 12 75.5t41.5 66t75 53t116 34.5t161.5 13q399 0 399 -242q0 -243 -399 -243q-406 0 -406 243zM733 1423q0 -43 38.5 -67.5t115.5 -24.5q75 0 112 24.5t37 67.5q0 90 -149 90q-154 0 -154 -90zM1225 551v10q0 98 -88.5 176t-235.5 78h-10q-78 0 -136 -22
t-89.5 -60t-46.5 -81t-15 -91v-10q0 -45 17 -89.5t50.5 -83.5t91.5 -63t132 -24h10q75 0 137.5 23.5t101.5 61.5t60 83.5t21 91.5zM1225 1102h557v-1102h-555v162q-19 -24 -53.5 -50t-95 -58.5t-155 -53t-204.5 -20.5h-33q-163 0 -290 45.5t-203.5 124.5t-115 177t-38.5 210
v43q0 84 23 161.5t73 147.5t122.5 121.5t178 81.5t232.5 30h37q109 0 204 -17.5t157 -45t99.5 -51t59.5 -45.5v139z" />
    <glyph glyph-name="aringacute.alt" horiz-adv-x="1691" 
d="M582 1718l182 330h549l-228 -330h-503zM420 1425q0 52 20 93.5t65 76t126 53.5t194 19q400 0 400 -242q0 -243 -400 -243q-116 0 -197.5 18.5t-125.5 53.5t-63 76.5t-19 94.5zM672 1425q0 -43 38 -67.5t115 -24.5q75 0 112.5 24.5t37.5 67.5q0 91 -150 91
q-153 0 -153 -91zM1067 473v47l-369 -65q-73 -12 -104 -33t-31 -62v-2q0 -46 40.5 -79t133.5 -33q147 0 238.5 68t91.5 159zM1077 147q-167 -167 -516 -167h-22q-133 0 -234.5 29.5t-160 80.5t-87 112.5t-28.5 131.5v24q0 143 103.5 221.5t342.5 98.5l531 47q34 4 47.5 16.5
t13.5 36.5q0 18 -7.5 31t-30.5 26t-73.5 20t-128.5 7h-8q-67 0 -115.5 -9t-72 -19.5t-38.5 -30t-17 -27.5t-5 -26h-516v12q0 37 4 67t20.5 70t45 70t81.5 62t126 52.5t183 33.5t247 13h115q143 0 257 -12t190 -31t131 -49t84.5 -59.5t46.5 -70t21.5 -72t4.5 -74.5v-389
q0 -277 28 -363v-10h-538q-25 45 -25 147z" />
    <glyph glyph-name="aringacute.alt2" horiz-adv-x="1863" 
d="M643 1714l182 330h549l-227 -330h-504zM481 1423q0 41 12 75.5t41.5 66t75 53t116 34.5t161.5 13q399 0 399 -242q0 -243 -399 -243q-406 0 -406 243zM733 1423q0 -43 38.5 -67.5t115.5 -24.5q75 0 112 24.5t37 67.5q0 90 -149 90q-154 0 -154 -90zM1225 551v10
q0 98 -88.5 176t-235.5 78h-10q-78 0 -136 -22t-89.5 -60t-46.5 -81t-15 -91v-10q0 -45 17 -89.5t50.5 -83.5t91.5 -63t132 -24h10q75 0 137.5 23.5t101.5 61.5t60 83.5t21 91.5zM1225 1102h557v-1102h-555v162q-19 -24 -53.5 -50t-95 -58.5t-155 -53t-204.5 -20.5h-33
q-163 0 -290 45.5t-203.5 124.5t-115 177t-38.5 210v43q0 84 23 161.5t73 147.5t122.5 121.5t178 81.5t232.5 30h37q109 0 204 -17.5t157 -45t99.5 -51t59.5 -45.5v139z" />
    <glyph glyph-name="atilde.alt" horiz-adv-x="1691" 
d="M1067 473v47l-369 -65q-73 -12 -104 -33t-31 -62v-2q0 -46 40.5 -79t133.5 -33q147 0 238.5 68t91.5 159zM1077 147q-167 -167 -516 -167h-22q-133 0 -234.5 29.5t-160 80.5t-87 112.5t-28.5 131.5v24q0 143 103.5 221.5t342.5 98.5l531 47q34 4 47.5 16.5t13.5 36.5
q0 18 -7.5 31t-30.5 26t-73.5 20t-128.5 7h-8q-67 0 -115.5 -9t-72 -19.5t-38.5 -30t-17 -27.5t-5 -26h-516v12q0 37 4 67t20.5 70t45 70t81.5 62t126 52.5t183 33.5t247 13h115q143 0 257 -12t190 -31t131 -49t84.5 -59.5t46.5 -70t21.5 -72t4.5 -74.5v-389q0 -277 28 -363
v-10h-538q-25 45 -25 147zM1083 1202h-8q-58 0 -110 12.5t-160 47.5q-92 28 -115 28q-33 0 -33 -43v-55h-325v166q0 36 9 67t31.5 62.5t70 50t114.5 18.5h8q64 0 113.5 -11t159.5 -46l35 -12.5t30.5 -10.5t22.5 -5.5t24 -2.5q31 0 31 41v60h328v-156q0 -211 -226 -211z" />
    <glyph glyph-name="atilde.alt2" horiz-adv-x="1863" 
d="M1225 551v10q0 98 -88.5 176t-235.5 78h-10q-78 0 -136 -22t-89.5 -60t-46.5 -81t-15 -91v-10q0 -45 17 -89.5t50.5 -83.5t91.5 -63t132 -24h10q75 0 137.5 23.5t101.5 61.5t60 83.5t21 91.5zM1225 1102h557v-1102h-555v162q-19 -24 -53.5 -50t-95 -58.5t-155 -53
t-204.5 -20.5h-33q-163 0 -290 45.5t-203.5 124.5t-115 177t-38.5 210v43q0 84 23 161.5t73 147.5t122.5 121.5t178 81.5t232.5 30h37q109 0 204 -17.5t157 -45t99.5 -51t59.5 -45.5v139zM1171 1198h-8q-58 0 -111 12t-159 47q-95 29 -115 29q-33 0 -33 -43v-55h-325v166
q0 36 9 67t31.5 62.5t70 50t114.5 18.5h8q64 0 113.5 -11t159.5 -46l35 -12.5t30.5 -10.5t22.5 -5.5t24 -2.5q31 0 31 41v60h328v-156q0 -211 -226 -211z" />
    <glyph glyph-name="racute.alt" horiz-adv-x="1206" 
d="M385 1194l182 330h549l-227 -330h-504zM639 426v-426h-557v1102h553v-262q153 286 516 286v-503q-114 22 -209 22q-303 0 -303 -219z" />
    <glyph glyph-name="rcaron.alt" horiz-adv-x="1206" 
d="M346 1194l-313 330h483l119 -133l119 133h479l-311 -330h-576zM639 426v-426h-557v1102h553v-262q153 286 516 286v-503q-114 22 -209 22q-303 0 -303 -219z" />
    <glyph glyph-name="rcommaaccent.alt" horiz-adv-x="1206" 
d="M524 -606h-266q57 104 72 188h-232v326h529v-256q0 -97 -103 -258zM639 426v-426h-557v1102h553v-262q153 286 516 286v-503q-114 22 -209 22q-303 0 -303 -219z" />
    <glyph glyph-name="space_uni0326.alt" 
d="M561 1708h266q-55 -102 -71 -188h231v-326h-528v256q0 56 32 131t70 127z" />
    <glyph glyph-name="ordfeminine.alt" horiz-adv-x="1204" 
d="M535 965q94 0 150 43.5t56 103.5v23l-227 -41q-88 -18 -88 -66q0 -63 109 -63zM762 893q-117 -117 -361 -117h-16q-98 0 -169.5 19.5t-111 54t-57.5 75t-18 87.5v14q0 94 80.5 146t259.5 69l329 29q25 5 34 11.5t9 23.5q0 16 -9 26t-43 17.5t-95 7.5h-12q-150 0 -150 -68
h-385v8q0 25 2 43t13 45t30 46.5t56.5 41t89 35t130.5 22.5t179 9h80q99 0 178 -8t132 -20.5t91.5 -32.5t60 -39.5t33.5 -46t15.5 -47.5t3.5 -48v-262q0 -176 18 -235v-8h-381q-16 37 -16 102z" />
    <glyph glyph-name="ordfeminine.alt2" horiz-adv-x="1316" 
d="M834 1155v8q0 65 -53 109.5t-150 44.5h-6q-96 0 -138.5 -44t-42.5 -112v-6q0 -65 46 -112.5t137 -47.5h8q97 0 148 47t51 113zM840 1524h413v-736h-411v101q-17 -17 -39.5 -32.5t-63.5 -36.5t-103 -33.5t-134 -12.5h-27q-115 0 -203.5 30.5t-140 84t-77 118.5t-25.5 140
v29q0 71 25 133.5t75.5 114.5t136 82t197.5 30h29q218 0 348 -100v88z" />
    <glyph glyph-name="caron.alt" 
d="M498 1178l28 346h420l-57 -346h-391z" />
    <glyph glyph-name="plus.uc" horiz-adv-x="1282" 
d="M1221 565h-394v-360h-374v360h-392v309h392v359h374v-359h394v-309z" />
    <glyph glyph-name="minus.uc" horiz-adv-x="1198" 
d="M61 877h1076v-314h-1076v314z" />
    <glyph glyph-name="multiply.uc" horiz-adv-x="1128" 
d="M883 213l-320 285l-315 -285l-223 242l292 264l-290 258l217 246l317 -285l316 285l225 -242l-295 -264l295 -264z" />
    <glyph glyph-name="divide.uc" horiz-adv-x="1257" 
d="M834 1300v-327h-410v327h410zM61 874h1135v-309h-1135v309zM834 463v-328h-410v328h410z" />
    <glyph glyph-name="equal.uc" horiz-adv-x="1214" 
d="M70 1067h1075v-287h-1075v287zM70 662h1075v-285h-1075v285z" />
    <glyph glyph-name="less.uc" horiz-adv-x="1122" 
d="M1057 217l-996 318v348l996 319v-332l-654 -163l654 -160v-330z" />
    <glyph glyph-name="greater.uc" horiz-adv-x="1107" 
d="M66 217v330l645 160l-645 163v332l981 -319v-348z" />
    <glyph glyph-name="questiondown.uc" horiz-adv-x="1857" 
d="M735 1014h557v-137q0 -60 -10.5 -100t-42.5 -79.5t-97 -69t-169 -53.5l-203 -47q-106 -23 -143 -49t-37 -61q0 -17 4 -28.5t21 -25t49 -21t90.5 -12.5t142.5 -5q56 0 102.5 4.5t80 10t60.5 17.5t44 20.5t30 24.5t19 25t10.5 27t5 24t2.5 23h564v-25q0 -52 -3 -87.5
t-21 -92t-50 -96t-95.5 -84.5t-152 -72.5t-225.5 -46t-310 -18.5h-108q-150 0 -272 13.5t-207 36.5t-149 56.5t-102.5 70t-62 82t-31.5 86.5t-8 89v14q0 147 90 249.5t298 153.5l206 50q78 19 100.5 44.5t22.5 78.5v10zM721 1124v400h575v-400h-575z" />
    <glyph glyph-name="exclamdown.uc" horiz-adv-x="780" 
d="M748 0h-715l186 1032h340zM680 1524v-400h-580v400h580z" />
    <glyph glyph-name="hyphen.uc" horiz-adv-x="811" 
d="M68 887h675v-381h-675v381z" />
    <glyph glyph-name="endash.uc" horiz-adv-x="1884" 
d="M68 844h1749v-291h-1749v291z" />
    <glyph glyph-name="emdash.uc" horiz-adv-x="2811" 
d="M68 844h2676v-291h-2676v291z" />
    <glyph glyph-name="guilsinglleft.uc" horiz-adv-x="718" 
d="M684 276h-401l-260 355l262 348h405l-254 -348z" />
    <glyph glyph-name="guilsinglright.uc" horiz-adv-x="718" 
d="M438 276h-403l248 355l-254 348h405l262 -348z" />
    <glyph glyph-name="guillemotleft.uc" horiz-adv-x="1167" 
d="M412 631l237 -355h-379l-247 355l247 348h383zM905 631l225 -355h-378l-238 355l244 348h381z" />
    <glyph glyph-name="guillemotright.uc" horiz-adv-x="1167" 
d="M262 631l-233 348h381l243 -348l-237 -355h-379zM897 276h-379l238 355l-242 348h383l248 -348z" />
    <glyph glyph-name="parenleft.uc" horiz-adv-x="739" 
d="M55 760q0 503 420 911h279q-119 -191 -194 -424t-75 -487q0 -463 269 -926h-279q-420 412 -420 926z" />
    <glyph glyph-name="parenright.uc" horiz-adv-x="739" 
d="M684 760q0 -514 -420 -926h-276q266 458 266 926q0 466 -266 911h276q420 -408 420 -911z" />
    <glyph glyph-name="bracketleft.uc" horiz-adv-x="765" 
d="M98 -166v1839h639v-243h-227v-1354h227v-242h-639z" />
    <glyph glyph-name="bracketright.uc" horiz-adv-x="765" 
d="M29 -166v242h227v1354h-227v243h639v-1839h-639z" />
    <glyph glyph-name="braceleft.uc" horiz-adv-x="804" 
d="M778 -164h-325q-183 0 -272 52.5t-89 172.5q0 52 27.5 128t60.5 139t60.5 127.5t27.5 95.5q0 88 -90 88h-137v240h137q90 0 90 73q0 33 -27.5 95.5t-60.5 123t-60.5 136t-27.5 131.5q0 235 361 235h325v-243h-172q-94 0 -94 -70q0 -33 34 -107t67.5 -154t33.5 -126
q0 -88 -49 -137.5t-166 -75.5q117 -23 166 -66t49 -116q0 -42 -21 -106.5t-46.5 -119.5t-46.5 -111t-21 -83q0 -82 106 -82h160v-240z" />
    <glyph glyph-name="braceright.uc" horiz-adv-x="804" 
d="M354 -164h-325v240h159q105 0 105 82q0 33 -33 112t-66.5 167t-33.5 141q0 74 48.5 116.5t164.5 65.5q-117 26 -165 75.5t-48 137.5q0 46 33 126t66.5 154t33.5 107q0 70 -94 70h-170v243h325q359 0 359 -235q0 -56 -27 -131.5t-60 -136t-60 -123t-27 -95.5q0 -73 88 -73
h137v-240h-137q-88 0 -88 -88q0 -31 27 -95.5t60 -127.5t60 -139t27 -128q0 -120 -88.5 -172.5t-270.5 -52.5z" />
    <glyph glyph-name="slash.uc" horiz-adv-x="1005" 
d="M1036 1671l-665 -1837h-412l662 1837h415z" />
    <glyph glyph-name="backslash.uc" horiz-adv-x="1005" 
d="M1047 -166h-412l-664 1837h414z" />
    <glyph glyph-name="bar.uc" horiz-adv-x="757" 
d="M571 1671v-1837h-383v1837h383z" />
    <glyph glyph-name="at.uc" horiz-adv-x="2729" 
d="M1382 -215q-236 0 -429.5 28t-329.5 76t-239.5 118.5t-166 147.5t-101.5 172.5t-53 184t-14 190.5v25q0 104 15.5 194t55 183t103.5 168t166 142t236 112.5t321 71.5t414 26h29q260 0 466.5 -29.5t340 -73.5t230 -114.5t145.5 -133.5t76 -152t32.5 -147t5.5 -140v-23
q0 -92 -18 -175.5t-66.5 -168t-123 -145.5t-197.5 -99.5t-281 -38.5h-35q-80 0 -145 11t-104 27t-69.5 39.5t-44.5 41t-26 39.5q-22 -22 -52.5 -43.5t-86.5 -50.5t-140 -46.5t-182 -17.5h-29q-79 0 -147.5 12.5t-119 35.5t-92.5 55t-68.5 69.5t-46.5 80.5t-27 88.5t-9.5 92
t5.5 91.5l14 110q7 57 25.5 109.5t57 106.5t91.5 93t135.5 64t183.5 25h31q313 0 496 -164l18 145h543l-94 -733q-9 -76 65 -76q110 0 184 116t74 318v6q0 57 -1.5 92t-11.5 90.5t-27.5 90.5t-53 82t-86 76.5t-127.5 62t-176 50.5t-234 30t-298 12h-29q-181 0 -328 -19
t-251.5 -52t-182.5 -83.5t-125.5 -107t-76.5 -129.5t-39.5 -144t-10.5 -157v-23q0 -79 10.5 -146.5t40 -141t77.5 -132.5t128 -113.5t186 -91t257.5 -58t336.5 -21.5q193 0 358.5 14t266 31t194 46t129 44.5t85.5 40.5l84 -211q-352 -176 -1117 -176zM1569 680l4 33
q13 108 -44.5 162.5t-180.5 54.5q-107 0 -156.5 -53t-58.5 -134l-7 -47q-13 -91 34 -156t159 -65q64 0 111 16t74.5 45.5t43 64t21.5 79.5z" />
    <glyph glyph-name="grave.uc" 
d="M928 1933l162 -317h-527l-207 317h572z" />
    <glyph glyph-name="dieresis.uc" 
d="M1274 1933v-317h-502v317h502zM674 1933v-317h-504v317h504z" />
    <glyph glyph-name="macron.uc" 
d="M242 1632v271h960v-271h-960z" />
    <glyph glyph-name="acute.uc" 
d="M356 1616l162 317h572l-207 -317h-527z" />
    <glyph glyph-name="circumflex.uc" 
d="M1010 1933l336 -317h-500l-127 119l-125 -119h-494l332 317h578z" />
    <glyph glyph-name="caron.uc" 
d="M438 1616l-338 317h500l127 -118l125 118h494l-330 -317h-578z" />
    <glyph glyph-name="breve.uc" 
d="M766 1602h-82q-114 0 -201 26.5t-135 64.5t-78.5 88t-39.5 90t-9 79v4h375q0 -12 5 -26.5t17.5 -32.5t41 -30t67.5 -12t66.5 12t39.5 30t16.5 32.5t4.5 26.5h369v-4q0 -37 -12 -78.5t-44.5 -90.5t-81.5 -88t-132 -65t-187 -26z" />
    <glyph glyph-name="dotaccent.uc" 
d="M999 1946v-330h-555v330h555z" />
    <glyph glyph-name="ring.uc" 
d="M317 1841q0 244 410 244q403 0 403 -244q0 -54 -19 -95.5t-63 -76.5t-125 -53.5t-196 -18.5q-410 0 -410 244zM569 1843q0 -94 158 -94q154 0 154 94q0 90 -154 90q-158 0 -158 -90z" />
    <glyph glyph-name="tilde.uc" 
d="M995 1624h-10q-66 0 -118.5 11.5t-157.5 47.5q-85 31 -123 31q-37 0 -37 -43v-59h-330v174q0 36 9.5 67.5t32.5 63.5t72 51t118 19h8q23 0 46 -2.5t37.5 -4t44.5 -9.5t40 -10.5t54 -16t58 -17.5q95 -31 121 -31q17 0 26 11.5t9 29.5v60h330v-162q0 -211 -230 -211z" />
    <glyph glyph-name="hungarumlaut.uc" 
d="M700 1616l121 317h502l-133 -317h-490zM123 1616l108 317h502l-121 -317h-489z" />
    <glyph glyph-name="emdash.altuc" horiz-adv-x="5488" 
d="M5421 842v-291h-5353v291h5353z" />
    <glyph glyph-name="f.short" horiz-adv-x="1079" 
d="M1038 1524v-295h-166q-45 0 -60 -18t-15 -62v-47h241v-338h-241v-764h-553v764h-217v338h217v108q0 314 403 314h391z" />
    <glyph glyph-name="f_f.short" horiz-adv-x="1984" 
d="M797 0h-553v764h-217v338h217v108q0 314 403 314h395v-295h-170q-45 0 -60 -18t-15 -62v-47h352v108q0 314 403 314h392v-295h-166q-45 0 -60.5 -18t-15.5 -62v-47h242v-338h-242v-764h-553v764h-352v-764z" />
    <glyph glyph-name="j.short" horiz-adv-x="720" 
d="M639 1524v-330h-557v330h557zM-33 -55h49q38 0 52 14.5t14 60.5v1082h557v-1184q0 -158 -63.5 -230.5t-165.5 -72.5h-443v330z" />
    </font>
</defs>
</svg>
